  0
SECTION
  2
HEADER
  9
$ACADVER
  1
AC1015
  9
$ACADMAINTVER
 70
     6
  9
$DWGCODEPAGE
  3
ANSI_1252
  9
$INSBASE
 10
0.0
 20
0.0
 30
0.0
  9
$EXTMIN
 10
0.0
 20
0.0
 30
0.0
  9
$EXTMAX
 10
29.7
 20
21.0
 30
0.0
  9
$LIMMIN
 10
0.0
 20
0.0
  9
$LIMMAX
 10
29.7
 20
21.0
  9
$ORTHOMODE
 70
     0
  9
$REGENMODE
 70
     1
  9
$FILLMODE
 70
     1
  9
$QTEXTMODE
 70
     0
  9
$MIRRTEXT
 70
     1
  9
$LTSCALE
 40
1.0
  9
$ATTMODE
 70
     1
  9
$TEXTSIZE
 40
0.35
  9
$TRACEWID
 40
1.0
  9
$TEXTSTYLE
  7
Standard
  9
$CLAYER
  8
0
  9
$CELTYPE
  6
ByLayer
  9
$CECOLOR
 62
   256
  9
$CELTSCALE
 40
1.0
  9
$DISPSILH
 70
     0
  9
$DIMSCALE
 40
1.0
  9
$DIMASZ
 40
0.3302
  9
$DIMEXO
 40
0.7
  9
$DIMDLI
 40
3.75
  9
$DIMRND
 40
0.0
  9
$DIMDLE
 40
0.0
  9
$DIMEXE
 40
0.1
  9
$DIMTP
 40
0.0
  9
$DIMTM
 40
0.0
  9
$DIMTXT
 40
0.3
  9
$DIMCEN
 40
2.5
  9
$DIMTSZ
 40
0.0
  9
$DIMTOL
 70
     0
  9
$DIMLIM
 70
     0
  9
$DIMTIH
 70
     1
  9
$DIMTOH
 70
     1
  9
$DIMSE1
 70
     0
  9
$DIMSE2
 70
     0
  9
$DIMTAD
 70
     1
  9
$DIMZIN
 70
     0
  9
$DIMBLK
  1

  9
$DIMASO
 70
     1
  9
$DIMSHO
 70
     1
  9
$DIMPOST
  1

  9
$DIMAPOST
  1

  9
$DIMALT
 70
     0
  9
$DIMALTD
 70
     3
  9
$DIMALTF
 40
0.3937007874015748
  9
$DIMLFAC
 40
10.0
  9
$DIMTOFL
 70
     1
  9
$DIMTVP
 40
0.0
  9
$DIMTIX
 70
     0
  9
$DIMSOXD
 70
     0
  9
$DIMSAH
 70
     0
  9
$DIMBLK1
  1

  9
$DIMBLK2
  1

  9
$DIMSTYLE
  2
ISO-25
  9
$DIMCLRD
 70
     0
  9
$DIMCLRE
 70
     0
  9
$DIMCLRT
 70
     0
  9
$DIMTFAC
 40
1.0
  9
$DIMGAP
 40
0.5
  9
$DIMJUST
 70
     0
  9
$DIMSD1
 70
     0
  9
$DIMSD2
 70
     0
  9
$DIMTOLJ
 70
     0
  9
$DIMTZIN
 70
     0
  9
$DIMALTZ
 70
     0
  9
$DIMALTTZ
 70
     0
  9
$DIMUPT
 70
     0
  9
$DIMDEC
 70
     1
  9
$DIMTDEC
 70
     1
  9
$DIMALTU
 70
     2
  9
$DIMALTTD
 70
     3
  9
$DIMTXSTY
  7
Standard
  9
$DIMAUNIT
 70
     0
  9
$DIMADEC
 70
     1
  9
$DIMALTRND
 40
0.0
  9
$DIMAZIN
 70
     0
  9
$DIMDSEP
 70
    44
  9
$DIMATFIT
 70
     3
  9
$DIMFRAC
 70
     0
  9
$DIMLDRBLK
  1

  9
$DIMLUNIT
 70
     2
  9
$DIMLWD
 70
    -2
  9
$DIMLWE
 70
    -2
  9
$DIMTMOVE
 70
     0
  9
$LUNITS
 70
     2
  9
$LUPREC
 70
     1
  9
$SKETCHINC
 40
1.0
  9
$FILLETRAD
 40
10.0
  9
$AUNITS
 70
     0
  9
$AUPREC
 70
     1
  9
$MENU
  1
.
  9
$ELEVATION
 40
0.0
  9
$PELEVATION
 40
0.0
  9
$THICKNESS
 40
0.0
  9
$LIMCHECK
 70
     0
  9
$CHAMFERA
 40
0.0
  9
$CHAMFERB
 40
0.0
  9
$CHAMFERC
 40
0.0
  9
$CHAMFERD
 40
0.0
  9
$SKPOLY
 70
     0
  9
$TDCREATE
 40
2457353.605882824
  9
$TDUCREATE
 40
2457353.564216157
  9
$TDUPDATE
 40
2457465.560077847
  9
$TDUUPDATE
 40
2457465.51841118
  9
$TDINDWG
 40
0.0180641551
  9
$TDUSRTIMER
 40
2457465.514518206
  9
$USRTIMER
 70
     1
  9
$ANGBASE
 50
0.0
  9
$ANGDIR
 70
     0
  9
$PDMODE
 70
     0
  9
$PDSIZE
 40
-1.0
  9
$PLINEWID
 40
0.0
  9
$SPLFRAME
 70
     0
  9
$SPLINETYPE
 70
     6
  9
$SPLINESEGS
 70
     8
  9
$HANDSEED
  5
48E
  9
$SURFTAB1
 70
     6
  9
$SURFTAB2
 70
     6
  9
$SURFTYPE
 70
     6
  9
$SURFU
 70
     6
  9
$SURFV
 70
     6
  9
$UCSBASE
  2

  9
$UCSNAME
  2

  9
$UCSORG
 10
0.0
 20
0.0
 30
0.0
  9
$UCSXDIR
 10
1.0
 20
0.0
 30
0.0
  9
$UCSYDIR
 10
0.0
 20
1.0
 30
0.0
  9
$UCSORTHOREF
  2

  9
$UCSORTHOVIEW
 70
     0
  9
$UCSORGTOP
 10
0.0
 20
0.0
 30
0.0
  9
$UCSORGBOTTOM
 10
0.0
 20
0.0
 30
0.0
  9
$UCSORGLEFT
 10
0.0
 20
0.0
 30
0.0
  9
$UCSORGRIGHT
 10
0.0
 20
0.0
 30
0.0
  9
$UCSORGFRONT
 10
0.0
 20
0.0
 30
0.0
  9
$UCSORGBACK
 10
0.0
 20
0.0
 30
0.0
  9
$PUCSBASE
  2

  9
$PUCSNAME
  2

  9
$PUCSORG
 10
0.0
 20
0.0
 30
0.0
  9
$PUCSXDIR
 10
1.0
 20
0.0
 30
0.0
  9
$PUCSYDIR
 10
0.0
 20
1.0
 30
0.0
  9
$PUCSORTHOREF
  2

  9
$PUCSORTHOVIEW
 70
     0
  9
$PUCSORGTOP
 10
0.0
 20
0.0
 30
0.0
  9
$PUCSORGBOTTOM
 10
0.0
 20
0.0
 30
0.0
  9
$PUCSORGLEFT
 10
0.0
 20
0.0
 30
0.0
  9
$PUCSORGRIGHT
 10
0.0
 20
0.0
 30
0.0
  9
$PUCSORGFRONT
 10
0.0
 20
0.0
 30
0.0
  9
$PUCSORGBACK
 10
0.0
 20
0.0
 30
0.0
  9
$USERI1
 70
     0
  9
$USERI2
 70
     0
  9
$USERI3
 70
     0
  9
$USERI4
 70
     0
  9
$USERI5
 70
     0
  9
$USERR1
 40
0.0
  9
$USERR2
 40
0.0
  9
$USERR3
 40
0.0
  9
$USERR4
 40
0.0
  9
$USERR5
 40
0.0
  9
$WORLDVIEW
 70
     1
  9
$SHADEDGE
 70
     3
  9
$SHADEDIF
 70
    70
  9
$TILEMODE
 70
     1
  9
$MAXACTVP
 70
    64
  9
$PINSBASE
 10
0.0
 20
0.0
 30
0.0
  9
$PLIMCHECK
 70
     0
  9
$PEXTMIN
 10
1.000000000000000E+20
 20
1.000000000000000E+20
 30
1.000000000000000E+20
  9
$PEXTMAX
 10
-1.000000000000000E+20
 20
-1.000000000000000E+20
 30
-1.000000000000000E+20
  9
$PLIMMIN
 10
0.0
 20
0.0
  9
$PLIMMAX
 10
0.0
 20
0.0
  9
$UNITMODE
 70
     0
  9
$VISRETAIN
 70
     1
  9
$PLINEGEN
 70
     0
  9
$PSLTSCALE
 70
     1
  9
$TREEDEPTH
 70
  3020
  9
$CMLSTYLE
  2
Standard
  9
$CMLJUST
 70
     0
  9
$CMLSCALE
 40
20.0
  9
$PROXYGRAPHICS
 70
     1
  9
$MEASUREMENT
 70
     1
  9
$CELWEIGHT
370
    -1
  9
$ENDCAPS
280
     0
  9
$JOINSTYLE
280
     0
  9
$LWDISPLAY
290
     1
  9
$INSUNITS
 70
     4
  9
$HYPERLINKBASE
  1

  9
$STYLESHEET
  1

  9
$XEDIT
290
     1
  9
$CEPSNTYPE
380
     0
  9
$PSTYLEMODE
290
     1
  9
$FINGERPRINTGUID
  2
{88E74B09-83FB-4E1F-A623-17714B60EA3D}
  9
$VERSIONGUID
  2
{FAEB1C32-E019-11D5-929B-00C0DF256EC4}
  9
$EXTNAMES
290
     1
  9
$PSVPSCALE
 40
0.0
  9
$OLESTARTUP
290
     0
  0
ENDSEC
  0
SECTION
  2
CLASSES
  0
CLASS
  1
ACDBDICTIONARYWDFLT
  2
AcDbDictionaryWithDefault
  3
ObjectDBX Classes
 90
        0
280
     0
281
     0
  0
CLASS
  1
VISUALSTYLE
  2
AcDbVisualStyle
  3
ObjectDBX Classes
 90
     4095
280
     0
281
     0
  0
CLASS
  1
MATERIAL
  2
AcDbMaterial
  3
ObjectDBX Classes
 90
     1153
280
     0
281
     0
  0
CLASS
  1
SCALE
  2
AcDbScale
  3
ObjectDBX Classes
 90
     1153
280
     0
281
     0
  0
CLASS
  1
TABLESTYLE
  2
AcDbTableStyle
  3
ObjectDBX Classes
 90
     4095
280
     0
281
     0
  0
CLASS
  1
MLEADERSTYLE
  2
AcDbMLeaderStyle
  3
ACDB_MLEADERSTYLE_CLASS
 90
     4095
280
     0
281
     0
  0
CLASS
  1
SUN
  2
AcDbSun
  3
SCENEOE
 90
     1024
280
     0
281
     0
  0
CLASS
  1
ACDBPLACEHOLDER
  2
AcDbPlaceHolder
  3
ObjectDBX Classes
 90
        0
280
     0
281
     0
  0
CLASS
  1
LAYOUT
  2
AcDbLayout
  3
ObjectDBX Classes
 90
        0
280
     0
281
     0
  0
CLASS
  1
RASTERVARIABLES
  2
AcDbRasterVariables
  3
ISM
 90
        0
280
     0
281
     0
  0
CLASS
  1
DICTIONARYVAR
  2
AcDbDictionaryVar
  3
ObjectDBX Classes
 90
        0
280
     0
281
     0
  0
CLASS
  1
DIMASSOC
  2
AcDbDimAssoc
  3
"AcDbDimAssoc|Product Desc:     AcDim ARX App For Dimension|Company:          Autodesk, Inc.|WEB Address:      www.autodesk.com"
 90
        0
280
     0
281
     0
  0
ENDSEC
  0
SECTION
  2
TABLES
  0
TABLE
  2
VPORT
  5
8
330
0
100
AcDbSymbolTable
 70
     1
  0
VPORT
  5
29
330
8
100
AcDbSymbolTableRecord
100
AcDbViewportTableRecord
  2
*Active
 70
     0
 10
0.0
 20
0.0
 11
1.0
 21
1.0
 12
13.83635454470785
 22
7.809268180310689
 13
0.0
 23
0.0
 14
10.0
 24
10.0
 15
10.0
 25
10.0
 16
0.0
 26
0.0
 36
1.0
 17
0.0
 27
0.0
 37
0.0
 40
1.803886264319993
 41
1.935560859188544
 42
50.0
 43
0.0
 44
0.0
 50
0.0
 51
0.0
 71
    16
 72
  2000
 73
     1
 74
     3
 75
     0
 76
     0
 77
     0
 78
     0
281
     0
 65
     1
110
0.0
120
0.0
130
0.0
111
1.0
121
0.0
131
0.0
112
0.0
122
1.0
132
0.0
 79
     0
146
0.0
  0
ENDTAB
  0
TABLE
  2
LTYPE
  5
5
330
0
100
AcDbSymbolTable
 70
     8
  0
LTYPE
  5
14
330
5
100
AcDbSymbolTableRecord
100
AcDbLinetypeTableRecord
  2
ByBlock
 70
     0
  3

 72
    65
 73
     0
 40
0.0
  0
LTYPE
  5
15
330
5
100
AcDbSymbolTableRecord
100
AcDbLinetypeTableRecord
  2
ByLayer
 70
     0
  3

 72
    65
 73
     0
 40
0.0
  0
LTYPE
  5
16
330
5
100
AcDbSymbolTableRecord
100
AcDbLinetypeTableRecord
  2
Continuous
 70
     0
  3
Solid line
 72
    65
 73
     0
 40
0.0
  0
LTYPE
  5
6E
330
5
100
AcDbSymbolTableRecord
100
AcDbLinetypeTableRecord
  2
HIDDEN
 70
     0
  3
Hidden __ __ __ __ __ __ __ __ __ __ __ __ __ __
 72
    65
 73
     2
 40
0.1905
 49
0.127
 74
     0
 49
-0.0635
 74
     0
  0
LTYPE
  5
6F
330
5
100
AcDbSymbolTableRecord
100
AcDbLinetypeTableRecord
  2
PHANTOM
 70
     0
  3
Phantom ______  __  __  ______  __  __  ______
 72
    65
 73
     6
 40
1.27
 49
0.635
 74
     0
 49
-0.127
 74
     0
 49
0.127
 74
     0
 49
-0.127
 74
     0
 49
0.127
 74
     0
 49
-0.127
 74
     0
  0
LTYPE
  5
70
330
5
100
AcDbSymbolTableRecord
100
AcDbLinetypeTableRecord
  2
CENTER
 70
     0
  3
Center ____ _ ____ _ ____ _ ____ _ ____ _ ____
 72
    65
 73
     4
 40
1.016
 49
0.635
 74
     0
 49
-0.127
 74
     0
 49
0.127
 74
     0
 49
-0.127
 74
     0
  0
LTYPE
  5
71
330
5
100
AcDbSymbolTableRecord
100
AcDbLinetypeTableRecord
  2
CENTERX2
 70
     0
  3
Center (2x) ________  __  ________  __  _____
 72
    65
 73
     4
 40
2.032
 49
1.27
 74
     0
 49
-0.254
 74
     0
 49
0.254
 74
     0
 49
-0.254
 74
     0
  0
LTYPE
  5
72
330
5
100
AcDbSymbolTableRecord
100
AcDbLinetypeTableRecord
  2
DOT2
 70
     0
  3
Dot (.5x) ........................................
 72
    65
 73
     2
 40
0.0635
 49
0.0
 74
     0
 49
-0.0635
 74
     0
  0
LTYPE
  5
263
330
5
100
AcDbSymbolTableRecord
100
AcDbLinetypeTableRecord
  2
DASHED2
 70
     0
  3
_ _ _ _ _ _ _ _ _ _ _ _ _ _ _ _ _ _ _ _ _ _ _ _ _ _ _ _ _ _ _
 72
    65
 73
     2
 40
0.375
 49
0.25
 74
     4
 75
     0
340
0
 46
1.0
 50
0.0
 44
0.0
 45
0.0
 49
-0.125
 74
     4
 75
     0
340
0
 46
1.0
 50
0.0
 44
0.0
 45
0.0
  0
LTYPE
  5
264
330
5
100
AcDbSymbolTableRecord
100
AcDbLinetypeTableRecord
  2
HIDDEN2
 70
     0
  3
_ _ _ _ _ _ _ _ _ _ _ _ _ _ _ _ _ _ _ _ _ _ _ _ _ _ _ _ _ _ _
 72
    65
 73
     2
 40
0.1875
 49
0.125
 74
     4
 75
     0
340
0
 46
1.0
 50
0.0
 44
0.0
 45
0.0
 49
-0.0625
 74
     4
 75
     0
340
0
 46
1.0
 50
0.0
 44
0.0
 45
0.0
  0
ENDTAB
  0
TABLE
  2
LAYER
  5
2
330
0
100
AcDbSymbolTable
 70
     5
  0
LAYER
  5
10
330
2
100
AcDbSymbolTableRecord
100
AcDbLayerTableRecord
  2
0
 70
     0
 62
     7
  6
Continuous
370
    -3
390
F
  0
LAYER
  5
73
330
2
100
AcDbSymbolTableRecord
100
AcDbLayerTableRecord
  2
SLD-0
 70
     0
 62
   179
  6
Continuous
370
    -3
390
F
  0
LAYER
  5
74
330
2
100
AcDbSymbolTableRecord
100
AcDbLayerTableRecord
  2
BASIC
 70
     0
 62
   179
  6
Continuous
370
    -3
390
F
  0
LAYER
  5
228
330
2
100
AcDbSymbolTableRecord
100
AcDbLayerTableRecord
  2
Defpoints
 70
     0
 62
     7
  6
Continuous
290
     0
370
    -3
390
F
  0
LAYER
  5
237
330
2
100
AcDbSymbolTableRecord
100
AcDbLayerTableRecord
  2
S&C_cotas
 70
     0
 62
   251
  6
Continuous
370
    -3
390
F
  0
ENDTAB
  0
TABLE
  2
STYLE
  5
3
330
0
100
AcDbSymbolTable
 70
     5
  0
STYLE
  5
11
330
3
100
AcDbSymbolTableRecord
100
AcDbTextStyleTableRecord
  2
Standard
 70
     0
 40
0.0
 41
1.0
 50
0.0
 71
     0
 42
0.35
  3
txt
  4

  0
STYLE
  5
86
330
3
100
AcDbSymbolTableRecord
100
AcDbTextStyleTableRecord
  2
SLDTEXTSTYLE0
 70
     0
 40
0.0
 41
0.605
 50
0.0
 71
     0
 42
0.35
  3
TXT
  4

  0
STYLE
  5
8E
330
3
100
AcDbSymbolTableRecord
100
AcDbTextStyleTableRecord
  2
SLDTEXTSTYLE1
 70
     0
 40
0.0
 41
0.7
 50
0.0
 71
     0
 42
0.35
  3
TXT
  4

  0
STYLE
  5
93
330
3
100
AcDbSymbolTableRecord
100
AcDbTextStyleTableRecord
  2
SLDTEXTSTYLE2
 70
     0
 40
0.0
 41
0.5747457627118644
 50
0.0
 71
     0
 42
0.35
  3
TXT
  4

  0
STYLE
  5
23A
330
3
100
AcDbSymbolTableRecord
100
AcDbTextStyleTableRecord
  2
ARIAL
 70
     0
 40
0.0
 41
1.0
 50
0.0
 71
     0
 42
15.0
  3
ARIAL.TTF
  4

1001
ACAD
1000
Arial
1071
       34
  0
ENDTAB
  0
TABLE
  2
VIEW
  5
6
330
0
100
AcDbSymbolTable
 70
     0
  0
ENDTAB
  0
TABLE
  2
UCS
  5
7
330
0
100
AcDbSymbolTable
 70
     0
  0
ENDTAB
  0
TABLE
  2
APPID
  5
9
330
0
100
AcDbSymbolTable
 70
     4
  0
APPID
  5
12
330
9
100
AcDbSymbolTableRecord
100
AcDbRegAppTableRecord
  2
ACAD
 70
     0
  0
APPID
  5
23E
330
9
100
AcDbSymbolTableRecord
100
AcDbRegAppTableRecord
  2
ACAD_DSTYLE_DIMJAG
 70
     0
  0
APPID
  5
23F
330
9
100
AcDbSymbolTableRecord
100
AcDbRegAppTableRecord
  2
ACAD_DSTYLE_DIMTALN
 70
     0
  0
APPID
  5
3D2
330
9
100
AcDbSymbolTableRecord
100
AcDbRegAppTableRecord
  2
ACAD_DSTYLE_DIMRADIAL_EXTENSION
 70
     0
  0
ENDTAB
  0
TABLE
  2
DIMSTYLE
  5
A
330
0
100
AcDbSymbolTable
 70
     3
100
AcDbDimStyleTable
  0
DIMSTYLE
105
27
330
A
100
AcDbSymbolTableRecord
100
AcDbDimStyleTableRecord
  2
ISO-25
 70
     0
 41
2.5
 42
0.625
 43
3.75
 44
1.25
 73
     0
 74
     0
 77
     1
 78
     8
140
2.5
141
2.5
143
0.03937007874016
147
0.625
171
     3
172
     1
178
     0
271
     2
272
     2
274
     3
278
    44
283
     0
284
     8
340
11
  0
DIMSTYLE
105
158
330
A
100
AcDbSymbolTableRecord
100
AcDbDimStyleTableRecord
  2
SLDDIMSTYLE0
 70
     0
 41
0.1016
 44
0.0
 45
0.000000001
 73
     0
 74
     0
 77
     1
 78
    12
 79
     3
140
0.3
143
0.3937007874015748
144
10.0
147
0.075
148
0.000000001
170
     1
171
     1
173
     1
178
     0
271
     1
272
     1
274
     1
276
     2
284
    12
340
86
341
159
343
159
344
159
  0
DIMSTYLE
105
239
102
{ACAD_REACTORS
330
2C5
330
31D
330
474
330
481
102
}
330
A
100
AcDbSymbolTableRecord
100
AcDbDimStyleTableRecord
  2
S&C_cotas
 70
     0
 41
0.1
 42
0.02
 44
0.018
 73
     0
 74
     0
140
0.02
141
0.0
147
0.0
176
   256
177
   256
271
     0
178
   256
179
     2
271
     0
272
     0
281
     1
282
     1
340
23A
341
23B
342
23B
1001
ACAD_DSTYLE_DIMJAG
1070
   388
1040
1.5
1001
ACAD_DSTYLE_DIMTALN
1070
   392
1070
     0
  0
ENDTAB
  0
TABLE
  2
BLOCK_RECORD
  5
1
330
0
100
AcDbSymbolTable
 70
    31
  0
BLOCK_RECORD
  5
1F
330
1
100
AcDbSymbolTableRecord
100
AcDbBlockTableRecord
  2
*Model_Space
340
22
  0
BLOCK_RECORD
  5
1B
330
1
100
AcDbSymbolTableRecord
100
AcDbBlockTableRecord
  2
*Paper_Space
340
1E
  0
BLOCK_RECORD
  5
23
330
1
100
AcDbSymbolTableRecord
100
AcDbBlockTableRecord
  2
*Paper_Space0
340
26
  0
BLOCK_RECORD
  5
83
330
1
100
AcDbSymbolTableRecord
100
AcDbBlockTableRecord
  2
SW_NOTE_0
340
0
  0
BLOCK_RECORD
  5
90
330
1
100
AcDbSymbolTableRecord
100
AcDbBlockTableRecord
  2
SW_NOTE_1
340
0
  0
BLOCK_RECORD
  5
159
330
1
100
AcDbSymbolTableRecord
100
AcDbBlockTableRecord
  2
_DOT
340
0
102
{BLKREFS
331
168
331
169
331
172
331
173
331
17C
331
17D
331
186
331
187
102
}
  0
BLOCK_RECORD
  5
161
330
1
100
AcDbSymbolTableRecord
100
AcDbBlockTableRecord
  2
_D
340
0
  0
BLOCK_RECORD
  5
16B
330
1
100
AcDbSymbolTableRecord
100
AcDbBlockTableRecord
  2
_D_1
340
0
  0
BLOCK_RECORD
  5
176
330
1
100
AcDbSymbolTableRecord
100
AcDbBlockTableRecord
  2
_D_2
340
0
  0
BLOCK_RECORD
  5
180
330
1
100
AcDbSymbolTableRecord
100
AcDbBlockTableRecord
  2
_D_3
340
0
  0
BLOCK_RECORD
  5
23B
330
1
100
AcDbSymbolTableRecord
100
AcDbBlockTableRecord
  2
_NONE
340
0
  0
BLOCK_RECORD
  5
2C8
330
1
100
AcDbSymbolTableRecord
100
AcDbBlockTableRecord
  2
*D13
340
0
  0
BLOCK_RECORD
  5
2D2
330
1
100
AcDbSymbolTableRecord
100
AcDbBlockTableRecord
  2
*D14
340
0
  0
BLOCK_RECORD
  5
31E
330
1
100
AcDbSymbolTableRecord
100
AcDbBlockTableRecord
  2
*D19
340
0
  0
BLOCK_RECORD
  5
38E
330
1
100
AcDbSymbolTableRecord
100
AcDbBlockTableRecord
  2
*D25
340
0
  0
BLOCK_RECORD
  5
475
330
1
100
AcDbSymbolTableRecord
100
AcDbBlockTableRecord
  2
*D29
340
0
  0
BLOCK_RECORD
  5
482
330
1
100
AcDbSymbolTableRecord
100
AcDbBlockTableRecord
  2
*D30
340
0
  0
ENDTAB
  0
ENDSEC
  0
SECTION
  2
BLOCKS
  0
BLOCK
  5
20
330
1F
100
AcDbEntity
  8
0
100
AcDbBlockBegin
  2
*Model_Space
 70
     0
 10
0.0
 20
0.0
 30
0.0
  3
*Model_Space
  1

  0
ENDBLK
  5
21
330
1F
100
AcDbEntity
  8
0
100
AcDbBlockEnd
  0
BLOCK
  5
1C
330
1B
100
AcDbEntity
 67
     1
  8
0
100
AcDbBlockBegin
  2
*Paper_Space
 70
     0
 10
0.0
 20
0.0
 30
0.0
  3
*Paper_Space
  1

  0
ENDBLK
  5
1D
330
1B
100
AcDbEntity
 67
     1
  8
0
100
AcDbBlockEnd
  0
BLOCK
  5
24
330
23
100
AcDbEntity
  8
0
100
AcDbBlockBegin
  2
*Paper_Space0
 70
     0
 10
0.0
 20
0.0
 30
0.0
  3
*Paper_Space0
  1

  0
ENDBLK
  5
25
330
23
100
AcDbEntity
  8
0
100
AcDbBlockEnd
  0
BLOCK
  5
84
330
83
100
AcDbEntity
  8
0
100
AcDbBlockBegin
  2
SW_NOTE_0
 70
     0
 10
0.0
 20
0.0
 30
0.0
  3
SW_NOTE_0
  1

  0
MTEXT
  5
87
330
83
100
AcDbEntity
  8
0
  6
Continuous
 62
     0
370
     0
100
AcDbMText
 10
0.0
 20
0.2062508383635144
 30
0.0
 40
0.16
 41
0.0
 71
     1
 72
     1
  1
Tel. +34 938 462 437
  7
SLDTEXTSTYLE0
 73
     1
 44
1.0
  0
MTEXT
  5
88
330
83
100
AcDbEntity
  8
0
  6
Continuous
 62
     0
370
     0
100
AcDbMText
 10
0.0
 20
-0.0537491623442908
 30
0.0
 40
0.16
 41
0.0
 71
     1
 72
     1
  1
Fax +34 938 711 767
  7
SLDTEXTSTYLE0
 73
     1
 44
1.0
  0
ENDBLK
  5
85
330
83
100
AcDbEntity
  8
0
100
AcDbBlockEnd
  0
BLOCK
  5
91
330
90
100
AcDbEntity
  8
0
100
AcDbBlockBegin
  2
SW_NOTE_1
 70
     0
 10
0.0
 20
0.0
 30
0.0
  3
SW_NOTE_1
  1

  0
MTEXT
  5
94
330
90
100
AcDbEntity
  8
0
  6
Continuous
 62
     0
370
     0
100
AcDbMText
 10
0.0
 20
0.2062508383635144
 30
0.0
 40
0.16
 41
0.0
 71
     1
 72
     1
  1
e-mail: info@santacole.com                www.santacole.com
  7
SLDTEXTSTYLE2
 73
     1
 44
1.0
  0
MTEXT
  5
95
330
90
100
AcDbEntity
  8
0
  6
Continuous
 62
     0
370
     0
100
AcDbMText
 10
0.0
 20
-0.0537491623442908
 30
0.0
 40
0.16
 41
0.0
 71
     1
 72
     1
  1
22/11/2015
  7
SLDTEXTSTYLE0
 73
     1
 44
1.0
  0
ENDBLK
  5
92
330
90
100
AcDbEntity
  8
0
100
AcDbBlockEnd
  0
BLOCK
  5
15A
330
159
100
AcDbEntity
  8
0
100
AcDbBlockBegin
  2
_DOT
 70
     0
 10
0.0
 20
0.0
 30
0.0
  3
_DOT
  1

  0
POLYLINE
  5
15C
330
159
100
AcDbEntity
  8
0
  6
ByBlock
 62
     0
100
AcDb2dPolyline
 66
     1
 10
0.0
 20
0.0
 30
0.0
 70
     1
 40
0.5
 41
0.5
  0
VERTEX
  5
15E
330
15C
100
AcDbEntity
  8
0
  6
ByBlock
 62
     0
100
AcDbVertex
100
AcDb2dVertex
 10
-0.25
 20
0.0
 30
0.0
 42
1.0
  0
VERTEX
  5
15F
330
15C
100
AcDbEntity
  8
0
  6
ByBlock
 62
     0
100
AcDbVertex
100
AcDb2dVertex
 10
0.25
 20
0.0
 30
0.0
 42
1.0
  0
SEQEND
  5
160
330
15C
100
AcDbEntity
  8
0
  6
ByBlock
 62
     0
  0
LINE
  5
15D
330
159
100
AcDbEntity
  8
0
  6
ByBlock
 62
     0
370
    -2
100
AcDbLine
 10
-0.5
 20
0.0
 30
0.0
 11
-1.0
 21
0.0
 31
0.0
  0
ENDBLK
  5
15B
330
159
100
AcDbEntity
  8
0
100
AcDbBlockEnd
  0
BLOCK
  5
162
330
161
100
AcDbEntity
  8
0
100
AcDbBlockBegin
  2
_D
 70
     0
 10
0.0
 20
0.0
 30
0.0
  3
_D
  1

  0
LINE
  5
164
330
161
100
AcDbEntity
  8
BASIC
 62
     0
370
    -2
100
AcDbLine
 10
14.17570378577986
 20
8.059278691009593
 30
0.0
 11
14.26070383577986
 21
8.059278691009593
 31
0.0
  0
LINE
  5
165
330
161
100
AcDbEntity
  8
BASIC
 62
     0
370
    -2
100
AcDbLine
 10
14.17570378577986
 20
7.804278691009594
 30
0.0
 11
14.26070383577986
 21
7.804278691009594
 31
0.0
  0
LINE
  5
166
330
161
100
AcDbEntity
  8
BASIC
 62
     0
370
    -2
100
AcDbLine
 10
14.26070383577986
 20
8.059278691009593
 30
0.0
 11
14.26070383577986
 21
8.262478691009594
 31
0.0
  0
LINE
  5
167
330
161
100
AcDbEntity
  8
BASIC
 62
     0
370
    -2
100
AcDbLine
 10
14.26070383577986
 20
7.804278691009594
 30
0.0
 11
14.26070383577986
 21
7.601078691009594
 31
0.0
  0
INSERT
  5
168
330
161
100
AcDbEntity
  8
BASIC
 62
     0
370
    -2
100
AcDbBlockReference
  2
_DOT
 10
14.26070383577986
 20
8.059278691009593
 30
0.0
 41
0.1016
 42
0.1016
 43
0.1016
 50
270.0000000000004
  0
INSERT
  5
169
330
161
100
AcDbEntity
  8
BASIC
 62
     0
370
    -2
100
AcDbBlockReference
  2
_DOT
 10
14.26070383577986
 20
7.804278691009594
 30
0.0
 41
0.1016
 42
0.1016
 43
0.1016
 50
90.0000000000004
  0
MTEXT
  5
229
330
161
100
AcDbEntity
  8
BASIC
 62
     0
100
AcDbMText
 10
13.88570383577986
 20
7.931778691009591
 30
0.0
 40
0.3
 41
0.0
 71
     2
 72
     1
  1
\A1;26 cm / 10"
  7
SLDTEXTSTYLE0
 11
-6.966105252550029E-15
 21
1.0
 31
0.0
 73
     1
 44
1.0
  0
POINT
  5
22A
330
161
100
AcDbEntity
  8
Defpoints
 62
     0
100
AcDbPoint
 10
14.11320378577986
 20
8.059278691009593
 30
0.0
  0
POINT
  5
22B
330
161
100
AcDbEntity
  8
Defpoints
 62
     0
100
AcDbPoint
 10
14.11320378577986
 20
7.804278691009594
 30
0.0
  0
POINT
  5
22C
330
161
100
AcDbEntity
  8
Defpoints
 62
     0
100
AcDbPoint
 10
14.26070383577986
 20
7.804278691009594
 30
0.0
  0
ENDBLK
  5
163
330
161
100
AcDbEntity
  8
0
100
AcDbBlockEnd
  0
BLOCK
  5
16C
330
16B
100
AcDbEntity
  8
0
100
AcDbBlockBegin
  2
_D_1
 70
     0
 10
0.0
 20
0.0
 30
0.0
  3
_D_1
  1

  0
LINE
  5
16E
330
16B
100
AcDbEntity
  8
BASIC
 62
     0
370
    -2
100
AcDbLine
 10
13.79870378577986
 20
7.741778691009594
 30
0.0
 11
13.79870378577986
 21
7.697256106118926
 31
0.0
  0
LINE
  5
16F
330
16B
100
AcDbEntity
  8
BASIC
 62
     0
370
    -2
100
AcDbLine
 10
14.15070378577986
 20
7.741778691009594
 30
0.0
 11
14.15070378577986
 21
7.697256106118926
 31
0.0
  0
LINE
  5
170
330
16B
100
AcDbEntity
  8
BASIC
 62
     0
370
    -2
100
AcDbLine
 10
13.79870378577986
 20
7.697256106118926
 30
0.0
 11
13.59550378577986
 21
7.697256106118926
 31
0.0
  0
LINE
  5
171
330
16B
100
AcDbEntity
  8
BASIC
 62
     0
370
    -2
100
AcDbLine
 10
14.15070378577986
 20
7.697256106118926
 30
0.0
 11
14.35390378577986
 21
7.697256106118926
 31
0.0
  0
INSERT
  5
172
330
16B
100
AcDbEntity
  8
BASIC
 62
     0
370
    -2
100
AcDbBlockReference
  2
_DOT
 10
13.79870378577986
 20
7.697256106118926
 30
0.0
 41
0.1016
 42
0.1016
 43
0.1016
  0
INSERT
  5
173
330
16B
100
AcDbEntity
  8
BASIC
 62
     0
370
    -2
100
AcDbBlockReference
  2
_DOT
 10
14.15070378577986
 20
7.697256106118926
 30
0.0
 41
0.1016
 42
0.1016
 43
0.1016
 50
180.0
  0
MTEXT
  5
174
330
16B
100
AcDbEntity
  8
BASIC
 62
     0
100
AcDbMText
 10
13.97470378577986
 20
8.072256106118926
 30
0.0
 40
0.3
 41
0.0
 71
     2
 72
     1
  1
\A1;%%c35 cm/ 14"
  7
SLDTEXTSTYLE0
 73
     1
 44
1.0
  0
POINT
  5
22D
330
16B
100
AcDbEntity
  8
Defpoints
 62
     0
100
AcDbPoint
 10
13.79870378577986
 20
7.804278691009594
 30
0.0
  0
POINT
  5
22E
330
16B
100
AcDbEntity
  8
Defpoints
 62
     0
100
AcDbPoint
 10
14.15070378577986
 20
7.804278691009594
 30
0.0
  0
POINT
  5
22F
330
16B
100
AcDbEntity
  8
Defpoints
 62
     0
100
AcDbPoint
 10
14.15070378577986
 20
7.697256106118926
 30
0.0
  0
ENDBLK
  5
16D
330
16B
100
AcDbEntity
  8
0
100
AcDbBlockEnd
  0
BLOCK
  5
177
330
176
100
AcDbEntity
  8
0
100
AcDbBlockBegin
  2
_D_2
 70
     0
 10
0.0
 20
0.0
 30
0.0
  3
_D_2
  1

  0
LINE
  5
179
330
176
100
AcDbEntity
  8
BASIC
 62
     0
370
    -2
100
AcDbLine
 10
13.9122037857799
 20
8.31252869100963
 30
0.0
 11
13.61277157189217
 21
8.312528691009629
 31
0.0
  0
LINE
  5
17A
330
176
100
AcDbEntity
  8
BASIC
 62
     0
370
    -2
100
AcDbLine
 10
13.77370378577986
 20
7.802278691009594
 30
0.0
 11
13.61277157189217
 21
7.802278691009593
 31
0.0
  0
LINE
  5
17B
330
176
100
AcDbEntity
  8
BASIC
 62
     0
370
    -2
100
AcDbLine
 10
13.61277157189217
 20
8.210928691009629
 30
0.0
 11
13.61277157189217
 21
7.903878691009593
 31
0.0
  0
INSERT
  5
17C
330
176
100
AcDbEntity
  8
BASIC
 62
     0
370
    -2
100
AcDbBlockReference
  2
_DOT
 10
13.61277157189217
 20
8.312528691009629
 30
0.0
 41
0.1016
 42
0.1016
 43
0.1016
 50
90.0000000000002
  0
INSERT
  5
17D
330
176
100
AcDbEntity
  8
BASIC
 62
     0
370
    -2
100
AcDbBlockReference
  2
_DOT
 10
13.61277157189217
 20
7.802278691009593
 30
0.0
 41
0.1016
 42
0.1016
 43
0.1016
 50
270.0000000000002
  0
MTEXT
  5
17E
330
176
100
AcDbEntity
  8
BASIC
 62
     0
100
AcDbMText
 10
13.23777157189217
 20
8.057403691009611
 30
0.0
 40
0.3
 41
0.0
 71
     2
 72
     1
  1
\A1;51 cm / 20"
  7
SLDTEXTSTYLE0
 11
-3.481346084076681E-15
 21
1.0
 31
0.0
 73
     1
 44
1.0
  0
POINT
  5
230
330
176
100
AcDbEntity
  8
Defpoints
 62
     0
100
AcDbPoint
 10
13.9747037857799
 20
8.31252869100963
 30
0.0
  0
POINT
  5
231
330
176
100
AcDbEntity
  8
Defpoints
 62
     0
100
AcDbPoint
 10
13.83620378577986
 20
7.802278691009594
 30
0.0
  0
POINT
  5
232
330
176
100
AcDbEntity
  8
Defpoints
 62
     0
100
AcDbPoint
 10
13.61277157189217
 20
7.802278691009593
 30
0.0
  0
ENDBLK
  5
178
330
176
100
AcDbEntity
  8
0
100
AcDbBlockEnd
  0
BLOCK
  5
181
330
180
100
AcDbEntity
  8
0
100
AcDbBlockBegin
  2
_D_3
 70
     0
 10
0.0
 20
0.0
 30
0.0
  3
_D_3
  1

  0
LINE
  5
183
330
180
100
AcDbEntity
  8
BASIC
 62
     0
370
    -2
100
AcDbLine
 10
13.91220378577986
 20
8.218528691009594
 30
0.0
 11
13.68870373577986
 21
8.218528691009592
 31
0.0
  0
LINE
  5
184
330
180
100
AcDbEntity
  8
BASIC
 62
     0
370
    -2
100
AcDbLine
 10
13.73620378577986
 20
7.802278691009593
 30
0.0
 11
13.68870373577986
 21
7.802278691009593
 31
0.0
  0
LINE
  5
185
330
180
100
AcDbEntity
  8
BASIC
 62
     0
370
    -2
100
AcDbLine
 10
13.68870373577986
 20
8.116928691009592
 30
0.0
 11
13.68870373577986
 21
7.903878691009593
 31
0.0
  0
INSERT
  5
186
330
180
100
AcDbEntity
  8
BASIC
 62
     0
370
    -2
100
AcDbBlockReference
  2
_DOT
 10
13.68870373577986
 20
8.218528691009592
 30
0.0
 41
0.1016
 42
0.1016
 43
0.1016
 50
90.00000000000024
  0
INSERT
  5
187
330
180
100
AcDbEntity
  8
BASIC
 62
     0
370
    -2
100
AcDbBlockReference
  2
_DOT
 10
13.68870373577986
 20
7.802278691009593
 30
0.0
 41
0.1016
 42
0.1016
 43
0.1016
 50
270.0000000000002
  0
MTEXT
  5
188
330
180
100
AcDbEntity
  8
BASIC
 62
     0
100
AcDbMText
 10
13.31370373577986
 20
8.010403691009591
 30
0.0
 40
0.3
 41
0.0
 71
     2
 72
     1
  1
\A1;42 cm / 17"
  7
SLDTEXTSTYLE0
 11
-4.267523938499121E-15
 21
1.0
 31
0.0
 73
     1
 44
1.0
  0
POINT
  5
233
330
180
100
AcDbEntity
  8
Defpoints
 62
     0
100
AcDbPoint
 10
13.97470378577986
 20
8.218528691009594
 30
0.0
  0
POINT
  5
234
330
180
100
AcDbEntity
  8
Defpoints
 62
     0
100
AcDbPoint
 10
13.79870378577986
 20
7.802278691009594
 30
0.0
  0
POINT
  5
235
330
180
100
AcDbEntity
  8
Defpoints
 62
     0
100
AcDbPoint
 10
13.68870373577986
 20
7.802278691009594
 30
0.0
  0
ENDBLK
  5
182
330
180
100
AcDbEntity
  8
0
100
AcDbBlockEnd
  0
BLOCK
  5
23C
330
23B
100
AcDbEntity
  8
0
100
AcDbBlockBegin
  2
_NONE
 70
     0
 10
0.0
 20
0.0
 30
0.0
  3
_NONE
  1

  0
ENDBLK
  5
23D
330
23B
100
AcDbEntity
  8
0
100
AcDbBlockEnd
  0
BLOCK
  5
2CF
330
2C8
100
AcDbEntity
  8
0
100
AcDbBlockBegin
  2
*D13
 70
     1
 10
0.0
 20
0.0
 30
0.0
  3
*D13
  1

  0
LINE
  5
2C9
330
2C8
100
AcDbEntity
  8
S&C_cotas
  6
Continuous
370
    -2
100
AcDbLine
 10
14.17070378482618
 20
8.059278697327686
 30
0.0
 11
14.26364265805748
 21
8.059278697327686
 31
0.0
  0
LINE
  5
2CA
330
2C8
100
AcDbEntity
  8
S&C_cotas
  6
Continuous
370
    -2
100
AcDbLine
 10
14.17070378482618
 20
7.802278690592361
 30
0.0
 11
14.26364265805748
 21
7.802278690592361
 31
0.0
  0
MTEXT
  5
2CB
330
2C8
100
AcDbEntity
  8
S&C_cotas
100
AcDbMText
 10
14.24564265805748
 20
7.940710539194183
 30
0.0
 40
0.02
 41
0.0
 71
     5
 72
     1
  1
\A1;26 cm / 10”^M
  7
ARIAL
 11
0.0
 21
1.0
 31
0.0
 73
   250
 44
0.0
  0
POINT
  5
2CC
330
2C8
100
AcDbEntity
  8
Defpoints
 62
     0
100
AcDbPoint
 10
14.15070378482618
 20
8.059278697327686
 30
0.0
  0
POINT
  5
2CD
330
2C8
100
AcDbEntity
  8
Defpoints
 62
     0
100
AcDbPoint
 10
14.15070378482618
 20
7.802278690592361
 30
0.0
  0
POINT
  5
2CE
330
2C8
100
AcDbEntity
  8
Defpoints
 62
     0
100
AcDbPoint
 10
14.24564265805748
 20
7.802278690592361
 30
0.0
  0
ENDBLK
  5
2D0
330
2C8
100
AcDbEntity
  8
0
100
AcDbBlockEnd
  0
BLOCK
  5
2D9
330
2D2
100
AcDbEntity
  8
0
100
AcDbBlockBegin
  2
*D14
 70
     1
 10
0.0
 20
0.0
 30
0.0
  3
*D14
  1

  0
LINE
  5
2D3
330
2D2
100
AcDbEntity
  8
S&C_cotas
  6
Continuous
370
    -2
100
AcDbLine
 10
13.77870378673353
 20
8.312681358376157
 30
0.0
 11
13.61595731095823
 21
8.312681358376157
 31
0.0
  0
LINE
  5
2D4
330
2D2
100
AcDbEntity
  8
S&C_cotas
  6
Continuous
370
    -2
100
AcDbLine
 10
13.71204373319334
 20
7.802278690592361
 30
0.0
 11
13.61595731095823
 21
7.802278690592361
 31
0.0
  0
MTEXT
  5
2D5
330
2D2
100
AcDbEntity
  8
S&C_cotas
100
AcDbMText
 10
13.63395731095823
 20
8.074344500159558
 30
0.0
 40
0.02
 41
0.0
 71
     5
 72
     1
  1
\A1;51 cm / 20”
  7
ARIAL
 11
0.0
 21
1.0
 31
0.0
 73
   250
 44
0.0
  0
POINT
  5
2D6
330
2D2
100
AcDbEntity
  8
Defpoints
 62
     0
100
AcDbPoint
 10
13.79870378673353
 20
8.312681358376157
 30
0.0
  0
POINT
  5
2D7
330
2D2
100
AcDbEntity
  8
Defpoints
 62
     0
100
AcDbPoint
 10
13.73204373319334
 20
7.802278690592361
 30
0.0
  0
POINT
  5
2D8
330
2D2
100
AcDbEntity
  8
Defpoints
 62
     0
100
AcDbPoint
 10
13.63395731095823
 20
7.802278690592361
 30
0.0
  0
ENDBLK
  5
2DA
330
2D2
100
AcDbEntity
  8
0
100
AcDbBlockEnd
  0
BLOCK
  5
325
330
31E
100
AcDbEntity
  8
0
100
AcDbBlockBegin
  2
*D19
 70
     1
 10
0.0
 20
0.0
 30
0.0
  3
*D19
  1

  0
LINE
  5
31F
330
31E
100
AcDbEntity
  8
S&C_cotas
  6
Continuous
370
    -2
100
AcDbLine
 10
13.77870378673353
 20
8.218999818730326
 30
0.0
 11
13.67933011718924
 21
8.218999818730326
 31
0.0
  0
LINE
  5
320
330
31E
100
AcDbEntity
  8
S&C_cotas
  6
Continuous
370
    -2
100
AcDbLine
 10
13.77870378673353
 20
7.802278690592361
 30
0.0
 11
13.67933011718924
 21
7.802278690592361
 31
0.0
  0
MTEXT
  5
321
330
31E
100
AcDbEntity
  8
S&C_cotas
100
AcDbMText
 10
13.69733011718924
 20
8.001328006023838
 30
0.0
 40
0.02
 41
0.0
 71
     5
 72
     1
  1
\A1;42 cm / 17”
  7
ARIAL
 11
0.0
 21
1.0
 31
0.0
 73
   250
 44
0.0
  0
POINT
  5
322
330
31E
100
AcDbEntity
  8
Defpoints
 62
     0
100
AcDbPoint
 10
13.79870378673353
 20
8.218999818730326
 30
0.0
  0
POINT
  5
323
330
31E
100
AcDbEntity
  8
Defpoints
 62
     0
100
AcDbPoint
 10
13.79870378673353
 20
7.802278690592361
 30
0.0
  0
POINT
  5
324
330
31E
100
AcDbEntity
  8
Defpoints
 62
     0
100
AcDbPoint
 10
13.69733011718924
 20
7.802278690592361
 30
0.0
  0
ENDBLK
  5
326
330
31E
100
AcDbEntity
  8
0
100
AcDbBlockEnd
  0
BLOCK
  5
395
330
38E
100
AcDbEntity
  8
0
100
AcDbBlockBegin
  2
*D25
 70
     1
 10
0.0
 20
0.0
 30
0.0
  3
*D25
  1

  0
LINE
  5
38F
330
38E
100
AcDbEntity
  8
S&C_cotas
  6
Continuous
370
    -2
100
AcDbLine
 10
13.77870378673353
 20
7.560156424476101
 30
0.0
 11
13.69335354526448
 21
7.560156424476101
 31
0.0
  0
LINE
  5
390
330
38E
100
AcDbEntity
  8
S&C_cotas
  6
Continuous
370
    -2
100
AcDbLine
 10
13.77870378673353
 20
7.206353348937825
 30
0.0
 11
13.69335354526448
 21
7.206353348937825
 31
0.0
  0
MTEXT
  5
391
330
38E
100
AcDbEntity
  8
S&C_cotas
100
AcDbMText
 10
13.71135354526448
 20
7.376433625492728
 30
0.0
 40
0.02
 41
0.0
 71
     5
 72
     1
  1
\A1;35 cm / 14”
  7
ARIAL
 11
0.0
 21
1.0
 31
0.0
 73
   250
 44
0.0
  0
POINT
  5
392
330
38E
100
AcDbEntity
  8
Defpoints
 62
     0
100
AcDbPoint
 10
13.79870378673353
 20
7.560156424476101
 30
0.0
  0
POINT
  5
393
330
38E
100
AcDbEntity
  8
Defpoints
 62
     0
100
AcDbPoint
 10
13.79870378673353
 20
7.206353348937825
 30
0.0
  0
POINT
  5
394
330
38E
100
AcDbEntity
  8
Defpoints
 62
     0
100
AcDbPoint
 10
13.71135354526448
 20
7.206353348937825
 30
0.0
  0
ENDBLK
  5
396
330
38E
100
AcDbEntity
  8
0
100
AcDbBlockEnd
  0
BLOCK
  5
476
330
475
100
AcDbEntity
  8
0
100
AcDbBlockBegin
  2
*D29
 70
     1
 10
0.0
 20
0.0
 30
0.0
  3
*D29
  1

  0
LINE
  5
477
330
475
100
AcDbEntity
  8
S&C_cotas
  6
Continuous
370
    -2
100
AcDbLine
 10
0.0993736695442968
 20
0.416721128137965
 30
0.0
 11
0.0000000000000007
 21
0.416721128137965
 31
0.0
  0
LINE
  5
478
330
475
100
AcDbEntity
  8
S&C_cotas
  6
Continuous
370
    -2
100
AcDbLine
 10
0.0993736695442968
 20
0.0
 30
0.0
 11
0.0000000000000007
 21
0.0
 31
0.0
  0
MTEXT
  5
479
330
475
100
AcDbEntity
  8
S&C_cotas
100
AcDbMText
 10
0.0180000000000007
 20
0.199049315431477
 30
0.0
 40
0.02
 41
0.0
 71
     5
 72
     1
  1
\A1;42 cm / 17”
  7
ARIAL
 11
5.827909127668425E-17
 21
1.0
 31
0.0
 73
   250
 44
0.0
  0
POINT
  5
47A
330
475
100
AcDbEntity
  8
Defpoints
 62
     0
100
AcDbPoint
 10
0.1193736695442968
 20
0.416721128137965
 30
0.0
  0
POINT
  5
47B
330
475
100
AcDbEntity
  8
Defpoints
 62
     0
100
AcDbPoint
 10
0.1193736695442968
 20
0.0
 30
0.0
  0
POINT
  5
47C
330
475
100
AcDbEntity
  8
Defpoints
 62
     0
100
AcDbPoint
 10
0.0180000000000007
 20
0.0
 30
0.0
  0
ENDBLK
  5
47D
330
475
100
AcDbEntity
  8
0
100
AcDbBlockEnd
  0
BLOCK
  5
489
330
482
100
AcDbEntity
  8
0
100
AcDbBlockBegin
  2
*D30
 70
     1
 10
0.0
 20
0.0
 30
0.0
  3
*D30
  1

  0
LINE
  5
483
330
482
100
AcDbEntity
  8
S&C_cotas
  6
Continuous
370
    -2
100
AcDbLine
 10
13.75870378673353
 20
7.559063376930909
 30
0.0
 11
13.68919535825549
 21
7.559063376930909
 31
0.0
  0
LINE
  5
484
330
482
100
AcDbEntity
  8
S&C_cotas
  6
Continuous
370
    -2
100
AcDbLine
 10
13.75870378673353
 20
7.207312625472452
 30
0.0
 11
13.68919535825549
 21
7.207312625472452
 31
0.0
  0
MTEXT
  5
485
330
482
100
AcDbEntity
  8
S&C_cotas
100
AcDbMText
 10
13.70719535825549
 20
7.356141491076188
 30
0.0
 40
0.02
 41
0.0
 71
     5
 72
     1
  1
\A1;35 cm / 14”
  7
ARIAL
 11
0.0
 21
1.0
 31
0.0
 73
   250
 44
0.0
  0
POINT
  5
486
330
482
100
AcDbEntity
  8
Defpoints
 62
     0
100
AcDbPoint
 10
13.77870378673353
 20
7.559063376930909
 30
0.0
  0
POINT
  5
487
330
482
100
AcDbEntity
  8
Defpoints
 62
     0
100
AcDbPoint
 10
13.77870378673353
 20
7.207312625472452
 30
0.0
  0
POINT
  5
488
330
482
100
AcDbEntity
  8
Defpoints
 62
     0
100
AcDbPoint
 10
13.70719535825549
 20
7.207312625472452
 30
0.0
  0
ENDBLK
  5
48A
330
482
100
AcDbEntity
  8
0
100
AcDbBlockEnd
  0
ENDSEC
  0
SECTION
  2
ENTITIES
  0
ARC
  5
BE
330
1F
100
AcDbEntity
  8
0
  6
Continuous
 62
     7
370
     0
100
AcDbCircle
 10
14.23970378577986
 20
8.053528691009593
 30
0.0
 40
0.4000000000000002
100
AcDbArc
 50
163.9381516564332
 51
192.0690825243518
  0
ARC
  5
BF
330
1F
100
AcDbEntity
  8
0
  6
Continuous
 62
     7
370
     0
100
AcDbCircle
 10
13.70970378577986
 20
8.053528691009593
 30
0.0
 40
0.4000000000000002
100
AcDbArc
 50
347.9309174756499
 51
16.06184834356681
  0
ARC
  5
C0
330
1F
100
AcDbEntity
  8
0
  6
Continuous
 62
     7
370
     0
100
AcDbCircle
 10
14.03240953410176
 20
7.984528691009594
 30
0.0
 40
0.0700000000000001
100
AcDbArc
 50
270.0000000000014
 51
347.9309174756495
  0
ARC
  5
C1
330
1F
100
AcDbEntity
  8
0
  6
Continuous
 62
     7
370
     0
100
AcDbCircle
 10
13.91699803745796
 20
7.984528691009594
 30
0.0
 40
0.0700000000000001
100
AcDbArc
 50
192.0690825243519
 51
270.0
  0
ARC
  5
C2
330
1F
100
AcDbEntity
  8
0
  6
Continuous
 62
     7
370
     0
100
AcDbCircle
 10
14.02682177286064
 20
8.14483138686154
 30
0.0
 40
0.0700000000000002
100
AcDbArc
 50
16.06184834356733
 51
81.88435188650578
  0
ARC
  5
C3
330
1F
100
AcDbEntity
  8
0
  6
Continuous
 62
     7
370
     0
100
AcDbCircle
 10
13.92258579869908
 20
8.14483138686154
 30
0.0
 40
0.0700000000000001
100
AcDbArc
 50
98.11564811349422
 51
163.9381516564327
  0
ARC
  5
C4
330
1F
100
AcDbEntity
  8
0
  6
Continuous
 62
     7
370
     0
100
AcDbCircle
 10
13.97470378577986
 20
7.779346913422595
 30
0.0
 40
0.4391817775869989
100
AcDbArc
 50
81.88435188650593
 51
98.11564811349386
  0
ARC
  5
C5
330
1F
100
AcDbEntity
  8
0
  6
Continuous
 62
     7
370
     0
100
AcDbCircle
 10
14.03120378577986
 20
7.909528691009593
 30
0.0
 40
0.0050000000000001
100
AcDbArc
 50
90.0
 51
180.0
  0
ARC
  5
C6
330
1F
100
AcDbEntity
  8
0
  6
Continuous
 62
     7
370
     0
100
AcDbCircle
 10
13.91820378577986
 20
7.909528691009593
 30
0.0
 40
0.0050000000000001
100
AcDbArc
 50
0.0
 51
90.0
  0
LINE
  5
C7
330
1F
100
AcDbEntity
  8
0
  6
Continuous
 62
     7
370
     0
100
AcDbLine
 10
14.02620378583947
 20
7.908528691709948
 30
0.0
 11
14.02620378583947
 21
7.909528691873861
 31
0.0
  0
LINE
  5
C8
330
1F
100
AcDbEntity
  8
0
  6
Continuous
 62
     7
370
     0
100
AcDbLine
 10
13.92320378572025
 20
7.909528691873861
 30
0.0
 11
13.92320378572025
 21
7.908528691709948
 31
0.0
  0
LINE
  5
C9
330
1F
100
AcDbEntity
  8
0
  6
Continuous
 62
     7
370
     0
100
AcDbLine
 10
14.02670378685274
 20
7.906528691382123
 30
0.0
 11
14.02670378685274
 21
7.908528691709948
 31
0.0
  0
LINE
  5
CA
330
1F
100
AcDbEntity
  8
0
  6
Continuous
 62
     7
370
     0
100
AcDbLine
 10
13.92270378470698
 20
7.908528691709948
 30
0.0
 11
13.92270378470698
 21
7.906528691382123
 31
0.0
  0
LINE
  5
CB
330
1F
100
AcDbEntity
  8
0
  6
Continuous
 62
     7
370
     0
100
AcDbLine
 10
13.96770378556379
 20
7.881528691009594
 30
0.0
 11
13.96770378556379
 21
7.872942904562665
 31
0.0
  0
LINE
  5
CC
330
1F
100
AcDbEntity
  8
0
  6
Continuous
 62
     7
370
     0
100
AcDbLine
 10
13.98170378599593
 20
7.872942904562665
 30
0.0
 11
13.98170378599593
 21
7.881528691009594
 31
0.0
  0
ARC
  5
CD
330
1F
100
AcDbEntity
  8
0
  6
Continuous
 62
     7
370
     0
100
AcDbCircle
 10
13.98070378577986
 20
7.872942904571967
 30
0.0
 40
0.0010000000000003
100
AcDbArc
 50
315.0
 51
0.0
  0
LINE
  5
CE
330
1F
100
AcDbEntity
  8
0
  6
Continuous
 62
     7
370
     0
100
AcDbLine
 10
13.98070378583201
 20
7.871528691233111
 30
0.0
 11
13.98141089249679
 21
7.872235797897888
 31
0.0
  0
ARC
  5
CF
330
1F
100
AcDbEntity
  8
0
  6
Continuous
 62
     7
370
     0
100
AcDbCircle
 10
13.96870378577986
 20
7.872942904571967
 30
0.0
 40
0.0010000000000003
100
AcDbArc
 50
180.0
 51
225.0
  0
LINE
  5
D0
330
1F
100
AcDbEntity
  8
0
  6
Continuous
 62
     7
370
     0
100
AcDbLine
 10
13.96799667906293
 20
7.872235797897888
 30
0.0
 11
13.9687037857277
 21
7.871528691233111
 31
0.0
  0
CIRCLE
  5
F2
330
1F
100
AcDbEntity
  8
0
  6
Continuous
 62
     7
370
     0
100
AcDbCircle
 10
13.82645378577986
 20
7.900278691009594
 30
0.0
 40
0.003
  0
LINE
  5
F3
330
1F
100
AcDbEntity
  8
0
  6
Continuous
 62
     7
370
     0
100
AcDbLine
 10
13.8254537850646
 20
7.900856040970398
 30
0.0
 11
13.8254537850646
 21
7.899701340676261
 31
0.0
  0
LINE
  5
F4
330
1F
100
AcDbEntity
  8
0
  6
Continuous
 62
     7
370
     0
100
AcDbLine
 10
13.8254537850646
 20
7.899701340676261
 30
0.0
 11
13.82645378709116
 21
7.89912398959787
 31
0.0
  0
LINE
  5
F5
330
1F
100
AcDbEntity
  8
0
  6
Continuous
 62
     7
370
     0
100
AcDbLine
 10
13.82645378709116
 20
7.89912398959787
 30
0.0
 11
13.82745378911772
 21
7.899701340676261
 31
0.0
  0
LINE
  5
F6
330
1F
100
AcDbEntity
  8
0
  6
Continuous
 62
     7
370
     0
100
AcDbLine
 10
13.82745378911772
 20
7.899701340676261
 30
0.0
 11
13.82745378911772
 21
7.900856040970398
 31
0.0
  0
LINE
  5
F7
330
1F
100
AcDbEntity
  8
0
  6
Continuous
 62
     7
370
     0
100
AcDbLine
 10
13.82745378911772
 20
7.900856040970398
 30
0.0
 11
13.82645378709116
 21
7.901433392048789
 31
0.0
  0
LINE
  5
F8
330
1F
100
AcDbEntity
  8
0
  6
Continuous
 62
     7
370
     0
100
AcDbLine
 10
13.82645378709116
 20
7.901433392048789
 30
0.0
 11
13.8254537850646
 21
7.900856040970398
 31
0.0
  0
CIRCLE
  5
F9
330
1F
100
AcDbEntity
  8
0
  6
Continuous
 62
     7
370
     0
100
AcDbCircle
 10
13.80845378577986
 20
7.887778691009593
 30
0.0
 40
0.0030000000000003
  0
LINE
  5
FA
330
1F
100
AcDbEntity
  8
0
  6
Continuous
 62
     7
370
     0
100
AcDbLine
 10
13.80845378041544
 20
7.888933391396863
 30
0.0
 11
13.80745377838888
 21
7.888356041249795
 31
0.0
  0
LINE
  5
FB
330
1F
100
AcDbEntity
  8
0
  6
Continuous
 62
     7
370
     0
100
AcDbLine
 10
13.80745377838888
 20
7.888356041249795
 30
0.0
 11
13.80745377838888
 21
7.887201340955658
 31
0.0
  0
LINE
  5
FC
330
1F
100
AcDbEntity
  8
0
  6
Continuous
 62
     7
370
     0
100
AcDbLine
 10
13.80745377838888
 20
7.887201340955658
 30
0.0
 11
13.80845378041544
 21
7.886623990342928
 31
0.0
  0
LINE
  5
FD
330
1F
100
AcDbEntity
  8
0
  6
Continuous
 62
     7
370
     0
100
AcDbLine
 10
13.80845378041544
 20
7.886623990342928
 30
0.0
 11
13.809453782442
 21
7.887201340955658
 31
0.0
  0
LINE
  5
FE
330
1F
100
AcDbEntity
  8
0
  6
Continuous
 62
     7
370
     0
100
AcDbLine
 10
13.809453782442
 20
7.887201340955658
 30
0.0
 11
13.809453782442
 21
7.888356041249795
 31
0.0
  0
LINE
  5
FF
330
1F
100
AcDbEntity
  8
0
  6
Continuous
 62
     7
370
     0
100
AcDbLine
 10
13.809453782442
 20
7.888356041249795
 30
0.0
 11
13.80845378041544
 21
7.888933391396863
 31
0.0
  0
LINE
  5
100
330
1F
100
AcDbEntity
  8
0
  6
Continuous
 62
     7
370
     0
100
AcDbLine
 10
14.13995378911772
 20
7.899701340676261
 30
0.0
 11
14.14095379114428
 21
7.89912398959787
 31
0.0
  0
LINE
  5
101
330
1F
100
AcDbEntity
  8
0
  6
Continuous
 62
     7
370
     0
100
AcDbLine
 10
14.14095379114428
 20
7.89912398959787
 30
0.0
 11
14.14195379317084
 21
7.899701340676261
 31
0.0
  0
LINE
  5
102
330
1F
100
AcDbEntity
  8
0
  6
Continuous
 62
     7
370
     0
100
AcDbLine
 10
14.14195379317084
 20
7.899701340676261
 30
0.0
 11
14.14195379317084
 21
7.900856040970398
 31
0.0
  0
LINE
  5
103
330
1F
100
AcDbEntity
  8
0
  6
Continuous
 62
     7
370
     0
100
AcDbLine
 10
14.14195379317084
 20
7.900856040970398
 30
0.0
 11
14.14095379114428
 21
7.901433392048789
 31
0.0
  0
LINE
  5
104
330
1F
100
AcDbEntity
  8
0
  6
Continuous
 62
     7
370
     0
100
AcDbLine
 10
14.14095379114428
 20
7.901433392048789
 30
0.0
 11
14.13995378911772
 21
7.900856040970398
 31
0.0
  0
LINE
  5
105
330
1F
100
AcDbEntity
  8
0
  6
Continuous
 62
     7
370
     0
100
AcDbLine
 10
14.13995378911772
 20
7.900856040970398
 30
0.0
 11
14.13995378911772
 21
7.899701340676261
 31
0.0
  0
CIRCLE
  5
106
330
1F
100
AcDbEntity
  8
0
  6
Continuous
 62
     7
370
     0
100
AcDbCircle
 10
14.14095378577986
 20
7.900278691009594
 30
0.0
 40
0.0030000000000001
  0
CIRCLE
  5
107
330
1F
100
AcDbEntity
  8
0
  6
Continuous
 62
     7
370
     0
100
AcDbCircle
 10
14.12295378577986
 20
7.887778691009595
 30
0.0
 40
0.0029999999999998
  0
LINE
  5
108
330
1F
100
AcDbEntity
  8
0
  6
Continuous
 62
     7
370
     0
100
AcDbLine
 10
14.12295378446856
 20
7.886623990342928
 30
0.0
 11
14.12395378649512
 21
7.887201340955658
 31
0.0
  0
LINE
  5
109
330
1F
100
AcDbEntity
  8
0
  6
Continuous
 62
     7
370
     0
100
AcDbLine
 10
14.12395378649512
 20
7.887201340955658
 30
0.0
 11
14.12395378649512
 21
7.888356041249795
 31
0.0
  0
LINE
  5
10A
330
1F
100
AcDbEntity
  8
0
  6
Continuous
 62
     7
370
     0
100
AcDbLine
 10
14.12395378649512
 20
7.888356041249795
 30
0.0
 11
14.12295378446856
 21
7.888933391396863
 31
0.0
  0
LINE
  5
10B
330
1F
100
AcDbEntity
  8
0
  6
Continuous
 62
     7
370
     0
100
AcDbLine
 10
14.12295378446856
 20
7.888933391396863
 30
0.0
 11
14.121953782442
 21
7.888356041249795
 31
0.0
  0
LINE
  5
10C
330
1F
100
AcDbEntity
  8
0
  6
Continuous
 62
     7
370
     0
100
AcDbLine
 10
14.121953782442
 20
7.888356041249795
 30
0.0
 11
14.121953782442
 21
7.887201340955658
 31
0.0
  0
LINE
  5
10D
330
1F
100
AcDbEntity
  8
0
  6
Continuous
 62
     7
370
     0
100
AcDbLine
 10
14.121953782442
 20
7.887201340955658
 30
0.0
 11
14.12295378446856
 21
7.886623990342928
 31
0.0
  0
LINE
  5
10E
330
1F
100
AcDbEntity
  8
0
  6
Continuous
 62
     7
370
     0
100
AcDbLine
 10
14.11120378673353
 20
8.02177868838699
 30
0.0
 11
14.11120378673353
 21
8.059278697327686
 31
0.0
  0
LINE
  5
10F
330
1F
100
AcDbEntity
  8
0
  6
Continuous
 62
     7
370
     0
100
AcDbLine
 10
14.11320379078665
 20
8.02177868838699
 30
0.0
 11
14.11320379078665
 21
8.059278697327686
 31
0.0
  0
LINE
  5
110
330
1F
100
AcDbEntity
  8
0
  6
Continuous
 62
     7
370
     0
100
AcDbLine
 10
14.11320379078665
 20
8.02177868838699
 30
0.0
 11
14.11120378673353
 21
8.02177868838699
 31
0.0
  0
LINE
  5
111
330
1F
100
AcDbEntity
  8
0
  6
Continuous
 62
     7
370
     0
100
AcDbLine
 10
14.11120378673353
 20
8.059278697327686
 30
0.0
 11
14.11320379078665
 21
8.059278697327686
 31
0.0
  0
LINE
  5
112
330
1F
100
AcDbEntity
  8
0
  6
Continuous
 62
     7
370
     0
100
AcDbLine
 10
13.83820378482618
 20
8.02177868838699
 30
0.0
 11
13.83820378482618
 21
8.059278697327686
 31
0.0
  0
LINE
  5
113
330
1F
100
AcDbEntity
  8
0
  6
Continuous
 62
     7
370
     0
100
AcDbLine
 10
13.83620378077307
 20
8.02177868838699
 30
0.0
 11
13.83620378077307
 21
8.059278697327686
 31
0.0
  0
LINE
  5
114
330
1F
100
AcDbEntity
  8
0
  6
Continuous
 62
     7
370
     0
100
AcDbLine
 10
13.83620378077307
 20
8.059278697327686
 30
0.0
 11
13.83820378482618
 21
8.059278697327686
 31
0.0
  0
LINE
  5
115
330
1F
100
AcDbEntity
  8
0
  6
Continuous
 62
     7
370
     0
100
AcDbLine
 10
13.83820378482618
 20
8.02177868838699
 30
0.0
 11
13.83620378077307
 21
8.02177868838699
 31
0.0
  0
LINE
  5
116
330
1F
100
AcDbEntity
  8
0
  6
Continuous
 62
     7
370
     0
100
AcDbLine
 10
13.97670378587485
 20
7.841778692410303
 30
0.0
 11
13.97270378568486
 21
7.841778692410303
 31
0.0
  0
LINE
  5
117
330
1F
100
AcDbEntity
  8
0
  6
Continuous
 62
     7
370
     0
100
AcDbLine
 10
13.97670378587485
 20
7.841778692410303
 30
0.0
 11
13.97670378587485
 21
7.804278694645477
 31
0.0
  0
LINE
  5
118
330
1F
100
AcDbEntity
  8
0
  6
Continuous
 62
     7
370
     0
100
AcDbLine
 10
13.97870378596985
 20
7.802278690592361
 30
0.0
 11
13.97870378596985
 21
7.804278694645477
 31
0.0
  0
LINE
  5
119
330
1F
100
AcDbEntity
  8
0
  6
Continuous
 62
     7
370
     0
100
AcDbLine
 10
13.97070378558987
 20
7.802278690592361
 30
0.0
 11
13.97870378596985
 21
7.802278690592361
 31
0.0
  0
LINE
  5
11A
330
1F
100
AcDbEntity
  8
0
  6
Continuous
 62
     7
370
     0
100
AcDbLine
 10
13.97070378558987
 20
7.804278694645477
 30
0.0
 11
13.97070378558987
 21
7.802278690592361
 31
0.0
  0
LINE
  5
11B
330
1F
100
AcDbEntity
  8
0
  6
Continuous
 62
     7
370
     0
100
AcDbLine
 10
13.97270378568486
 20
7.804278694645477
 30
0.0
 11
13.97070378558987
 21
7.804278694645477
 31
0.0
  0
LINE
  5
11C
330
1F
100
AcDbEntity
  8
0
  6
Continuous
 62
     7
370
     0
100
AcDbLine
 10
13.97270378568486
 20
7.841778692410303
 30
0.0
 11
13.97270378568486
 21
7.804278694645477
 31
0.0
  0
LINE
  5
11D
330
1F
100
AcDbEntity
  8
0
  6
Continuous
 62
     7
370
     0
100
AcDbLine
 10
13.97870378596985
 20
7.804278694645477
 30
0.0
 11
13.97670378587485
 21
7.804278694645477
 31
0.0
  0
LINE
  5
11E
330
1F
100
AcDbEntity
  8
0
  6
Continuous
 62
     7
370
     0
100
AcDbLine
 10
13.97670378587485
 20
8.059278697327686
 30
0.0
 11
13.97670378587485
 21
8.02177868838699
 31
0.0
  0
LINE
  5
11F
330
1F
100
AcDbEntity
  8
0
  6
Continuous
 62
     7
370
     0
100
AcDbLine
 10
13.97270378568486
 20
8.059278697327686
 30
0.0
 11
13.97270378568486
 21
8.02177868838699
 31
0.0
  0
LINE
  5
120
330
1F
100
AcDbEntity
  8
0
  6
Continuous
 62
     7
370
     0
100
AcDbLine
 10
13.97670378587485
 20
8.02177868838699
 30
0.0
 11
13.97270378568486
 21
8.02177868838699
 31
0.0
  0
LINE
  5
121
330
1F
100
AcDbEntity
  8
0
  6
Continuous
 62
     7
370
     0
100
AcDbLine
 10
13.97670378587485
 20
8.059278697327686
 30
0.0
 11
13.97270378568486
 21
8.059278697327686
 31
0.0
  0
LINE
  5
122
330
1F
100
AcDbEntity
  8
0
  6
Continuous
 62
     7
370
     0
100
AcDbLine
 10
13.79870378673353
 20
7.802278690592361
 30
0.0
 11
13.83620378077307
 21
7.802278690592361
 31
0.0
  0
LINE
  5
123
330
1F
100
AcDbEntity
  8
0
  6
Continuous
 62
     7
370
     0
100
AcDbLine
 10
13.79870378673353
 20
7.802278690592361
 30
0.0
 11
13.79870378673353
 21
7.804278694645477
 31
0.0
  0
LINE
  5
124
330
1F
100
AcDbEntity
  8
0
  6
Continuous
 62
     7
370
     0
100
AcDbLine
 10
13.79870378673353
 20
7.804278694645477
 30
0.0
 11
13.83620378077307
 21
7.804278694645477
 31
0.0
  0
LINE
  5
125
330
1F
100
AcDbEntity
  8
0
  6
Continuous
 62
     7
370
     0
100
AcDbLine
 10
13.83620378077307
 20
7.804278694645477
 30
0.0
 11
13.83620378077307
 21
7.802278690592361
 31
0.0
  0
LINE
  5
126
330
1F
100
AcDbEntity
  8
0
  6
Continuous
 62
     7
370
     0
100
AcDbLine
 10
14.15070378482618
 20
7.802278690592361
 30
0.0
 11
14.11320379078665
 21
7.802278690592361
 31
0.0
  0
LINE
  5
127
330
1F
100
AcDbEntity
  8
0
  6
Continuous
 62
     7
370
     0
100
AcDbLine
 10
14.11320379078665
 20
7.802278690592361
 30
0.0
 11
14.11320379078665
 21
7.804278694645477
 31
0.0
  0
LINE
  5
128
330
1F
100
AcDbEntity
  8
0
  6
Continuous
 62
     7
370
     0
100
AcDbLine
 10
14.15070378482618
 20
7.804278694645477
 30
0.0
 11
14.11320379078665
 21
7.804278694645477
 31
0.0
  0
LINE
  5
129
330
1F
100
AcDbEntity
  8
0
  6
Continuous
 62
     7
370
     0
100
AcDbLine
 10
14.15070378482618
 20
7.804278694645477
 30
0.0
 11
14.15070378482618
 21
7.802278690592361
 31
0.0
  0
LINE
  5
12A
330
1F
100
AcDbEntity
  8
0
  6
Continuous
 62
     7
370
     0
100
AcDbLine
 10
14.11320379078665
 20
7.804278694645477
 30
0.0
 11
14.11320379078665
 21
8.059278697327686
 31
0.0
  0
LINE
  5
12C
330
1F
100
AcDbEntity
  8
0
  6
Continuous
 62
     7
370
     0
100
AcDbLine
 10
14.15070378482618
 20
8.059278697327686
 30
0.0
 11
14.11320379078665
 21
8.059278697327686
 31
0.0
  0
CIRCLE
  5
12D
330
1F
100
AcDbEntity
  8
0
  6
Continuous
 62
     7
370
     0
100
AcDbCircle
 10
14.14095378577986
 20
7.900278691009594
 30
0.0
 40
0.0034699999999999
  0
CIRCLE
  5
12E
330
1F
100
AcDbEntity
  8
0
  6
Continuous
 62
     7
370
     0
100
AcDbCircle
 10
14.12295378577986
 20
7.887778691009594
 30
0.0
 40
0.0034700000000001
  0
LINE
  5
12F
330
1F
100
AcDbEntity
  8
0
  6
Continuous
 62
     7
370
     0
100
AcDbLine
 10
14.15070378482618
 20
7.804278694645477
 30
0.0
 11
14.15070378482618
 21
8.059278697327686
 31
0.0
  0
LINE
  5
130
330
1F
100
AcDbEntity
  8
0
  6
Continuous
 62
     7
370
     0
100
AcDbLine
 10
13.83620378077307
 20
7.804278694645477
 30
0.0
 11
13.83620378077307
 21
8.059278697327686
 31
0.0
  0
LINE
  5
131
330
1F
100
AcDbEntity
  8
0
  6
Continuous
 62
     7
370
     0
100
AcDbLine
 10
13.79870378673353
 20
7.804278694645477
 30
0.0
 11
13.79870378673353
 21
8.059278697327686
 31
0.0
  0
CIRCLE
  5
132
330
1F
100
AcDbEntity
  8
0
  6
Continuous
 62
     7
370
     0
100
AcDbCircle
 10
13.82645378577986
 20
7.900278691009594
 30
0.0
 40
0.0034699999999999
  0
CIRCLE
  5
133
330
1F
100
AcDbEntity
  8
0
  6
Continuous
 62
     7
370
     0
100
AcDbCircle
 10
13.80845378577986
 20
7.887778691009594
 30
0.0
 40
0.0034700000000001
  0
LINE
  5
134
330
1F
100
AcDbEntity
  8
0
  6
Continuous
 62
     7
370
     0
100
AcDbLine
 10
13.83620378077307
 20
8.059278697327686
 30
0.0
 11
13.79870378673353
 21
8.059278697327686
 31
0.0
  0
LINE
  5
136
330
1F
100
AcDbEntity
  8
0
  6
Continuous
 62
     7
370
     0
100
AcDbLine
 10
13.97670378587485
 20
7.804278694645477
 30
0.0
 11
13.97670378587485
 21
8.059278697327686
 31
0.0
  0
LINE
  5
137
330
1F
100
AcDbEntity
  8
0
  6
Continuous
 62
     7
370
     0
100
AcDbLine
 10
13.97870378596985
 20
8.059278697327686
 30
0.0
 11
13.97670378587485
 21
8.059278697327686
 31
0.0
  0
LINE
  5
138
330
1F
100
AcDbEntity
  8
0
  6
Continuous
 62
     7
370
     0
100
AcDbLine
 10
13.97870378596985
 20
7.804278694645477
 30
0.0
 11
13.97870378596985
 21
8.059278697327686
 31
0.0
  0
LINE
  5
139
330
1F
100
AcDbEntity
  8
0
  6
Continuous
 62
     7
370
     0
100
AcDbLine
 10
13.97270378568486
 20
7.804278694645477
 30
0.0
 11
13.97270378568486
 21
8.059278697327686
 31
0.0
  0
LINE
  5
13A
330
1F
100
AcDbEntity
  8
0
  6
Continuous
 62
     7
370
     0
100
AcDbLine
 10
13.97070378558987
 20
7.804278694645477
 30
0.0
 11
13.97070378558987
 21
8.059278697327686
 31
0.0
  0
LINE
  5
13B
330
1F
100
AcDbEntity
  8
0
  6
Continuous
 62
     7
370
     0
100
AcDbLine
 10
13.97270378568486
 20
8.059278697327686
 30
0.0
 11
13.97070378558987
 21
8.059278697327686
 31
0.0
  0
LINE
  5
13C
330
1F
100
AcDbEntity
  8
0
  6
Continuous
 62
     7
370
     0
100
AcDbLine
 10
14.03240953460612
 20
7.91452869083078
 30
0.0
 11
13.97870378596985
 21
7.91452869083078
 31
0.0
  0
LINE
  5
13D
330
1F
100
AcDbEntity
  8
0
  6
Continuous
 62
     7
370
     0
100
AcDbLine
 10
13.97670378587485
 20
7.91452869083078
 30
0.0
 11
13.97270378568486
 21
7.91452869083078
 31
0.0
  0
LINE
  5
13E
330
1F
100
AcDbEntity
  8
0
  6
Continuous
 62
     7
370
     0
100
AcDbLine
 10
13.97070378558987
 20
7.91452869083078
 30
0.0
 11
13.91699803695359
 21
7.91452869083078
 31
0.0
  0
LINE
  5
13F
330
1F
100
AcDbEntity
  8
0
  6
Continuous
 62
     7
370
     0
100
AcDbLine
 10
14.02666530832925
 20
7.906528691382123
 30
0.0
 11
13.97870378596985
 21
7.906528691382123
 31
0.0
  0
LINE
  5
140
330
1F
100
AcDbEntity
  8
0
  6
Continuous
 62
     7
370
     0
100
AcDbLine
 10
13.97070378558987
 20
7.906528691382123
 30
0.0
 11
13.92274226323047
 21
7.906528691382123
 31
0.0
  0
LINE
  5
141
330
1F
100
AcDbEntity
  8
0
  6
Continuous
 62
     7
370
     0
100
AcDbLine
 10
14.02670378685274
 20
7.908528691709948
 30
0.0
 11
13.97870378596985
 21
7.908528691709948
 31
0.0
  0
LINE
  5
142
330
1F
100
AcDbEntity
  8
0
  6
Continuous
 62
     7
370
     0
100
AcDbLine
 10
13.97670378587485
 20
7.908528691709948
 30
0.0
 11
13.97270378568486
 21
7.908528691709948
 31
0.0
  0
LINE
  5
143
330
1F
100
AcDbEntity
  8
0
  6
Continuous
 62
     7
370
     0
100
AcDbLine
 10
13.97070378558987
 20
7.908528691709948
 30
0.0
 11
13.92270378470698
 21
7.908528691709948
 31
0.0
  0
LINE
  5
144
330
1F
100
AcDbEntity
  8
0
  6
Continuous
 62
     7
370
     0
100
AcDbLine
 10
13.96770378556379
 20
7.881528691009594
 30
0.0
 11
13.97070378558987
 21
7.881528691009594
 31
0.0
  0
LINE
  5
145
330
1F
100
AcDbEntity
  8
0
  6
Continuous
 62
     7
370
     0
100
AcDbLine
 10
13.97870378596985
 20
7.881528691009594
 30
0.0
 11
13.98170378599593
 21
7.881528691009594
 31
0.0
  0
LINE
  5
146
330
1F
100
AcDbEntity
  8
0
  6
Continuous
 62
     7
370
     0
100
AcDbLine
 10
13.97270378568486
 20
7.879528690914599
 30
0.0
 11
13.97670378587485
 21
7.879528690914599
 31
0.0
  0
SPLINE
  5
147
330
1F
100
AcDbEntity
  8
0
  6
Continuous
 62
     7
370
     0
100
AcDbSpline
210
0.0
220
0.0
230
1.0
 70
     8
 71
     3
 72
     9
 73
     5
 74
     0
 42
0.000000001
 43
0.00000001
 40
0.0
 40
0.0
 40
0.0
 40
0.0
 40
0.152762593900316
 40
1.0
 40
1.0
 40
1.0
 40
1.0
 10
13.97670378587485
 20
7.871873214461816
 30
0.0
 10
13.97660678393835
 20
7.871836201037706
 30
0.0
 10
13.97597179906396
 20
7.871593907272159
 30
0.0
 10
13.97528536142475
 20
7.871558602638963
 30
0.0
 10
13.97470378577986
 20
7.871528691233111
 30
0.0
  0
SPLINE
  5
148
330
1F
100
AcDbEntity
  8
0
  6
Continuous
 62
     7
370
     0
100
AcDbSpline
210
0.0
220
0.0
230
1.0
 70
     8
 71
     3
 72
     9
 73
     5
 74
     0
 42
0.000000001
 43
0.00000001
 40
0.0
 40
0.0
 40
0.0
 40
0.0
 40
0.0598351963369237
 40
1.0
 40
1.0
 40
1.0
 40
1.0
 10
13.97470378577986
 20
7.871528691233111
 30
0.0
 10
13.97466319968846
 20
7.871528887305983
 30
0.0
 10
13.97398490173199
 20
7.871532164187888
 30
0.0
 10
13.97332458872935
 20
7.871715814972403
 30
0.0
 10
13.97270378568486
 20
7.871888476976169
 30
0.0
  0
LINE
  5
149
330
1F
100
AcDbEntity
  8
0
  6
Continuous
 62
     7
370
     0
100
AcDbLine
 10
13.98070378583201
 20
7.871528691233111
 30
0.0
 11
13.97870378596985
 21
7.871528691233111
 31
0.0
  0
LINE
  5
14A
330
1F
100
AcDbEntity
  8
0
  6
Continuous
 62
     7
370
     0
100
AcDbLine
 10
13.97670378587485
 20
7.871528691233111
 30
0.0
 11
13.97470378577986
 21
7.871528691233111
 31
0.0
  0
LINE
  5
14B
330
1F
100
AcDbEntity
  8
0
  6
Continuous
 62
     7
370
     0
100
AcDbLine
 10
13.97470378577986
 20
7.871528691233111
 30
0.0
 11
13.97270378568486
 21
7.871528691233111
 31
0.0
  0
LINE
  5
14C
330
1F
100
AcDbEntity
  8
0
  6
Continuous
 62
     7
370
     0
100
AcDbLine
 10
13.97070378558987
 20
7.871528691233111
 30
0.0
 11
13.9687037857277
 21
7.871528691233111
 31
0.0
  0
LINE
  5
14D
330
1F
100
AcDbEntity
  8
0
  6
Continuous
 62
     7
370
     0
100
AcDbLine
 10
14.11320379078665
 20
7.881528691009594
 30
0.0
 11
13.98170378599593
 21
7.881528691009594
 31
0.0
  0
LINE
  5
14E
330
1F
100
AcDbEntity
  8
0
  6
Continuous
 62
     7
370
     0
100
AcDbLine
 10
13.98170378599593
 20
7.881528691009594
 30
0.0
 11
13.98170378599593
 21
7.906528691382123
 31
0.0
  0
LINE
  5
14F
330
1F
100
AcDbEntity
  8
0
  6
Continuous
 62
     7
370
     0
100
AcDbLine
 10
14.02666530832925
 20
7.906528691382123
 30
0.0
 11
14.11320379078665
 21
7.906528691382123
 31
0.0
  0
LINE
  5
150
330
1F
100
AcDbEntity
  8
0
  6
Continuous
 62
     7
370
     0
100
AcDbLine
 10
13.97670378587485
 20
7.906528691382123
 30
0.0
 11
13.97670378587485
 21
7.881528691009594
 31
0.0
  0
LINE
  5
151
330
1F
100
AcDbEntity
  8
0
  6
Continuous
 62
     7
370
     0
100
AcDbLine
 10
13.97270378568486
 20
7.906528691382123
 30
0.0
 11
13.97270378568486
 21
7.881528691009594
 31
0.0
  0
LINE
  5
152
330
1F
100
AcDbEntity
  8
0
  6
Continuous
 62
     7
370
     0
100
AcDbLine
 10
13.97670378587485
 20
7.881528691009594
 30
0.0
 11
13.97270378568486
 21
7.881528691009594
 31
0.0
  0
LINE
  5
153
330
1F
100
AcDbEntity
  8
0
  6
Continuous
 62
     7
370
     0
100
AcDbLine
 10
13.97670378587485
 20
7.906528691382123
 30
0.0
 11
13.97270378568486
 21
7.906528691382123
 31
0.0
  0
LINE
  5
154
330
1F
100
AcDbEntity
  8
0
  6
Continuous
 62
     7
370
     0
100
AcDbLine
 10
13.92274226323047
 20
7.906528691382123
 30
0.0
 11
13.83620378077307
 21
7.906528691382123
 31
0.0
  0
LINE
  5
155
330
1F
100
AcDbEntity
  8
0
  6
Continuous
 62
     7
370
     0
100
AcDbLine
 10
13.83620378077307
 20
7.881528691009594
 30
0.0
 11
13.96770378556379
 21
7.881528691009594
 31
0.0
  0
LINE
  5
156
330
1F
100
AcDbEntity
  8
0
  6
Continuous
 62
     7
370
     0
100
AcDbLine
 10
13.96770378556379
 20
7.881528691009594
 30
0.0
 11
13.96770378556379
 21
7.906528691382123
 31
0.0
  0
ARC
  5
199
330
1F
100
AcDbEntity
  8
0
  6
Continuous
 62
     7
370
     0
100
AcDbCircle
 10
13.97470378577986
 20
7.383063377884583
 30
0.0
 40
0.1350000000000001
100
AcDbArc
 50
90.0
 51
174.6802547208085
  0
ARC
  5
19A
330
1F
100
AcDbEntity
  8
0
  6
Continuous
 62
     7
370
     0
100
AcDbCircle
 10
13.97470378577986
 20
7.383063377884583
 30
0.0
 40
0.1350000000000001
100
AcDbArc
 50
185.3196775725303
 51
354.6815237207287
  0
ARC
  5
19B
330
1F
100
AcDbEntity
  8
0
  6
Continuous
 62
     7
370
     0
100
AcDbCircle
 10
13.97470378577986
 20
7.383063377884583
 30
0.0
 40
0.1350000000000001
100
AcDbArc
 50
5.317827668340636
 51
90.0
  0
LINE
  5
1E5
330
1F
100
AcDbEntity
  8
0
  6
Continuous
 62
     7
370
     0
100
AcDbLine
 10
13.79870378673353
 20
7.381063377789588
 30
0.0
 11
13.79870378673353
 21
7.385063377979578
 31
0.0
  0
LINE
  5
1E8
330
1F
100
AcDbEntity
  8
0
  6
Continuous
 62
     7
370
     0
100
AcDbLine
 10
14.15070378482618
 20
7.385063377979578
 30
0.0
 11
14.15070378482618
 21
7.381063377789588
 31
0.0
  0
LINE
  5
1EA
330
1F
100
AcDbEntity
  8
0
  6
Continuous
 62
     7
370
     0
100
AcDbLine
 10
13.97870378596985
 20
7.521563382891373
 30
0.0
 11
13.97670378587485
 21
7.521563382891373
 31
0.0
  0
LINE
  5
1EB
330
1F
100
AcDbEntity
  8
0
  6
Continuous
 62
     7
370
     0
100
AcDbLine
 10
13.97870378596985
 20
7.519563378838257
 30
0.0
 11
13.97870378596985
 21
7.521563382891373
 31
0.0
  0
LINE
  5
1EC
330
1F
100
AcDbEntity
  8
0
  6
Continuous
 62
     7
370
     0
100
AcDbLine
 10
13.97070378558987
 20
7.519563378838257
 30
0.0
 11
13.97870378596985
 21
7.519563378838257
 31
0.0
  0
LINE
  5
1ED
330
1F
100
AcDbEntity
  8
0
  6
Continuous
 62
     7
370
     0
100
AcDbLine
 10
13.97070378558987
 20
7.521563382891373
 30
0.0
 11
13.97070378558987
 21
7.519563378838257
 31
0.0
  0
LINE
  5
1EE
330
1F
100
AcDbEntity
  8
0
  6
Continuous
 62
     7
370
     0
100
AcDbLine
 10
13.97270378568486
 20
7.521563382891373
 30
0.0
 11
13.97070378558987
 21
7.521563382891373
 31
0.0
  0
LINE
  5
1EF
330
1F
100
AcDbEntity
  8
0
  6
Continuous
 62
     7
370
     0
100
AcDbLine
 10
13.97270378568486
 20
7.521563382891373
 30
0.0
 11
13.97270378568486
 21
7.559063376930909
 31
0.0
  0
LINE
  5
1F0
330
1F
100
AcDbEntity
  8
0
  6
Continuous
 62
     7
370
     0
100
AcDbLine
 10
13.97270378568486
 20
7.559063376930909
 30
0.0
 11
13.97670378587485
 21
7.559063376930909
 31
0.0
  0
LINE
  5
1F1
330
1F
100
AcDbEntity
  8
0
  6
Continuous
 62
     7
370
     0
100
AcDbLine
 10
13.97670378587485
 20
7.521563382891373
 30
0.0
 11
13.97670378587485
 21
7.559063376930909
 31
0.0
  0
LINE
  5
1F2
330
1F
100
AcDbEntity
  8
0
  6
Continuous
 62
     7
370
     0
100
AcDbLine
 10
13.97070378558987
 20
7.244563372877793
 30
0.0
 11
13.97270378568486
 21
7.244563372877793
 31
0.0
  0
LINE
  5
1F3
330
1F
100
AcDbEntity
  8
0
  6
Continuous
 62
     7
370
     0
100
AcDbLine
 10
13.97070378558987
 20
7.246563376930909
 30
0.0
 11
13.97070378558987
 21
7.244563372877793
 31
0.0
  0
LINE
  5
1F4
330
1F
100
AcDbEntity
  8
0
  6
Continuous
 62
     7
370
     0
100
AcDbLine
 10
13.97870378596985
 20
7.246563376930909
 30
0.0
 11
13.97070378558987
 21
7.246563376930909
 31
0.0
  0
LINE
  5
1F5
330
1F
100
AcDbEntity
  8
0
  6
Continuous
 62
     7
370
     0
100
AcDbLine
 10
13.97870378596985
 20
7.244563372877793
 30
0.0
 11
13.97870378596985
 21
7.246563376930909
 31
0.0
  0
LINE
  5
1F6
330
1F
100
AcDbEntity
  8
0
  6
Continuous
 62
     7
370
     0
100
AcDbLine
 10
13.97670378587485
 20
7.244563372877793
 30
0.0
 11
13.97870378596985
 21
7.244563372877793
 31
0.0
  0
LINE
  5
1F7
330
1F
100
AcDbEntity
  8
0
  6
Continuous
 62
     7
370
     0
100
AcDbLine
 10
13.97670378587485
 20
7.244563372877793
 30
0.0
 11
13.97670378587485
 21
7.207063378838257
 31
0.0
  0
LINE
  5
1F8
330
1F
100
AcDbEntity
  8
0
  6
Continuous
 62
     7
370
     0
100
AcDbLine
 10
13.97670378587485
 20
7.207063378838257
 30
0.0
 11
13.97270378568486
 21
7.207063378838257
 31
0.0
  0
LINE
  5
1F9
330
1F
100
AcDbEntity
  8
0
  6
Continuous
 62
     7
370
     0
100
AcDbLine
 10
13.97270378568486
 20
7.244563372877793
 30
0.0
 11
13.97270378568486
 21
7.207063378838257
 31
0.0
  0
LINE
  5
1FA
330
1F
100
AcDbEntity
  8
0
  6
Continuous
 62
     7
370
     0
100
AcDbLine
 10
13.79870378673353
 20
7.385063377979578
 30
0.0
 11
13.79870378673353
 21
7.387063378074573
 31
0.0
  0
LINE
  5
1FD
330
1F
100
AcDbEntity
  8
0
  6
Continuous
 62
     7
370
     0
100
AcDbLine
 10
13.79870378673353
 20
7.379063377694593
 30
0.0
 11
13.79870378673353
 21
7.381063377789588
 31
0.0
  0
LINE
  5
1FF
330
1F
100
AcDbEntity
  8
0
  6
Continuous
 62
     7
370
     0
100
AcDbLine
 10
14.15070378482618
 20
7.387063378074573
 30
0.0
 11
14.15070378482618
 21
7.385063377979578
 31
0.0
  0
LINE
  5
201
330
1F
100
AcDbEntity
  8
0
  6
Continuous
 62
     7
370
     0
100
AcDbLine
 10
14.15070378482618
 20
7.381063377789588
 30
0.0
 11
14.15070378482618
 21
7.379063377694593
 31
0.0
  0
LINE
  5
202
330
1F
100
AcDbEntity
  8
0
  6
Continuous
 62
     7
370
     0
100
AcDbLine
 10
13.97870378596985
 20
7.244563372877793
 30
0.0
 11
13.97870378596985
 21
7.207063378838257
 31
0.0
  0
LINE
  5
203
330
1F
100
AcDbEntity
  8
0
  6
Continuous
 62
     7
370
     0
100
AcDbLine
 10
13.97870378596985
 20
7.207063378838257
 30
0.0
 11
13.97670378587485
 21
7.207063378838257
 31
0.0
  0
LINE
  5
204
330
1F
100
AcDbEntity
  8
0
  6
Continuous
 62
     7
370
     0
100
AcDbLine
 10
13.97070378558987
 20
7.521563382891373
 30
0.0
 11
13.97070378558987
 21
7.559063376930909
 31
0.0
  0
LINE
  5
205
330
1F
100
AcDbEntity
  8
0
  6
Continuous
 62
     7
370
     0
100
AcDbLine
 10
13.97070378558987
 20
7.559063376930909
 30
0.0
 11
13.97270378568486
 21
7.559063376930909
 31
0.0
  0
LINE
  5
206
330
1F
100
AcDbEntity
  8
0
  6
Continuous
 62
     7
370
     0
100
AcDbLine
 10
13.97670378587485
 20
7.559063376930909
 30
0.0
 11
13.97870378596985
 21
7.559063376930909
 31
0.0
  0
LINE
  5
207
330
1F
100
AcDbEntity
  8
0
  6
Continuous
 62
     7
370
     0
100
AcDbLine
 10
13.97870378596985
 20
7.559063376930909
 30
0.0
 11
13.97870378596985
 21
7.521563382891373
 31
0.0
  0
LINE
  5
208
330
1F
100
AcDbEntity
  8
0
  6
Continuous
 62
     7
370
     0
100
AcDbLine
 10
13.97270378568486
 20
7.207063378838257
 30
0.0
 11
13.97070378558987
 21
7.207063378838257
 31
0.0
  0
LINE
  5
209
330
1F
100
AcDbEntity
  8
0
  6
Continuous
 62
     7
370
     0
100
AcDbLine
 10
13.97070378558987
 20
7.207063378838257
 30
0.0
 11
13.97070378558987
 21
7.244563372877793
 31
0.0
  0
LINE
  5
20A
330
1F
100
AcDbEntity
  8
0
  6
Continuous
 62
     7
370
     0
100
AcDbLine
 10
13.97670378587485
 20
7.248078199175553
 30
0.0
 11
13.97670378587485
 21
7.246563376930909
 31
0.0
  0
LINE
  5
20B
330
1F
100
AcDbEntity
  8
0
  6
Continuous
 62
     7
370
     0
100
AcDbLine
 10
13.97270378568486
 20
7.248078199175553
 30
0.0
 11
13.97270378568486
 21
7.246563376930909
 31
0.0
  0
LINE
  5
20C
330
1F
100
AcDbEntity
  8
0
  6
Continuous
 62
     7
370
     0
100
AcDbLine
 10
13.97270378568486
 20
7.518048556593613
 30
0.0
 11
13.97270378568486
 21
7.519563378838257
 31
0.0
  0
LINE
  5
20D
330
1F
100
AcDbEntity
  8
0
  6
Continuous
 62
     7
370
     0
100
AcDbLine
 10
13.97670378587485
 20
7.518048556593613
 30
0.0
 11
13.97670378587485
 21
7.519563378838257
 31
0.0
  0
DIMENSION
  5
2C5
330
1F
100
AcDbEntity
  8
S&C_cotas
  6
Continuous
100
AcDbDimension
  2
*D13
 10
14.24564265805748
 20
7.802278690592361
 30
0.0
 11
14.24564265805748
 21
7.940710539194183
 31
0.0
 70
   160
  1
26 cm / 10”^M
 71
    76
 72
   250
 41
0.0
 42
0.2570000067353249
  3
S&C_cotas
100
AcDbAlignedDimension
 13
14.15070378482618
 23
8.059278697327686
 33
0.0
 14
14.15070378482618
 24
7.802278690592361
 34
0.0
 50
90.0
100
AcDbRotatedDimension
  0
DIMENSION
  5
31D
330
1F
100
AcDbEntity
  8
S&C_cotas
  6
Continuous
100
AcDbDimension
  2
*D19
 10
13.69733011718924
 20
7.802278690592361
 30
0.0
 11
13.69733011718924
 21
8.001328006023838
 31
0.0
 70
   160
  1
42 cm / 17”
 71
    76
 72
   250
 41
0.0
 42
0.416721128137965
  3
S&C_cotas
100
AcDbAlignedDimension
 13
13.79870378673353
 23
8.218999818730326
 33
0.0
 14
13.79870378673353
 24
7.802278690592361
 34
0.0
 50
90.0
100
AcDbRotatedDimension
  0
CIRCLE
  5
3E2
330
1F
100
AcDbEntity
  8
0
100
AcDbCircle
 10
13.97470378577986
 20
7.383063377884583
 30
0.0
 40
0.1350000000000001
  0
LINE
  5
40D
330
1F
100
AcDbEntity
  8
0
  6
Continuous
 62
     7
370
     0
100
AcDbLine
 10
13.83620378077307
 20
7.387063378074573
 30
0.0
 11
13.83620378077307
 21
7.385063377979578
 31
0.0
  0
LINE
  5
40E
330
1F
100
AcDbEntity
  8
0
  6
Continuous
 62
     7
370
     0
100
AcDbLine
 10
13.83820378482618
 20
7.387063378074573
 30
0.0
 11
13.83620378077307
 21
7.387063378074573
 31
0.0
  0
LINE
  5
40F
330
1F
100
AcDbEntity
  8
0
  6
Continuous
 62
     7
370
     0
100
AcDbLine
 10
13.83820378482618
 20
7.379063377694593
 30
0.0
 11
13.83820378482618
 21
7.387063378074573
 31
0.0
  0
LINE
  5
410
330
1F
100
AcDbEntity
  8
0
  6
Continuous
 62
     7
370
     0
100
AcDbLine
 10
13.83620378077307
 20
7.379063377694593
 30
0.0
 11
13.83820378482618
 21
7.379063377694593
 31
0.0
  0
LINE
  5
411
330
1F
100
AcDbEntity
  8
0
  6
Continuous
 62
     7
370
     0
100
AcDbLine
 10
13.83620378077307
 20
7.381063377789588
 30
0.0
 11
13.83620378077307
 21
7.379063377694593
 31
0.0
  0
LINE
  5
412
330
1F
100
AcDbEntity
  8
0
  6
Continuous
 62
     7
370
     0
100
AcDbLine
 10
13.83620378077307
 20
7.381063377789588
 30
0.0
 11
13.79870378673353
 21
7.381063377789588
 31
0.0
  0
LINE
  5
413
330
1F
100
AcDbEntity
  8
0
  6
Continuous
 62
     7
370
     0
100
AcDbLine
 10
13.79870378673353
 20
7.381063377789588
 30
0.0
 11
13.79870378673353
 21
7.385063377979578
 31
0.0
  0
LINE
  5
414
330
1F
100
AcDbEntity
  8
0
  6
Continuous
 62
     7
370
     0
100
AcDbLine
 10
13.83620378077307
 20
7.385063377979578
 30
0.0
 11
13.79870378673353
 21
7.385063377979578
 31
0.0
  0
LINE
  5
415
330
1F
100
AcDbEntity
  8
0
  6
Continuous
 62
     7
370
     0
100
AcDbLine
 10
13.83620378077307
 20
7.379063377694593
 30
0.0
 11
13.79870378673353
 21
7.379063377694593
 31
0.0
  0
LINE
  5
416
330
1F
100
AcDbEntity
  8
0
  6
Continuous
 62
     7
370
     0
100
AcDbLine
 10
13.79870378673353
 20
7.379063377694593
 30
0.0
 11
13.79870378673353
 21
7.381063377789588
 31
0.0
  0
LINE
  5
417
330
1F
100
AcDbEntity
  8
0
  6
Continuous
 62
     7
370
     0
100
AcDbLine
 10
13.79870378673353
 20
7.385063377979578
 30
0.0
 11
13.79870378673353
 21
7.387063378074573
 31
0.0
  0
LINE
  5
418
330
1F
100
AcDbEntity
  8
0
  6
Continuous
 62
     7
370
     0
100
AcDbLine
 10
13.79870378673353
 20
7.387063378074573
 30
0.0
 11
13.83620378077307
 21
7.387063378074573
 31
0.0
  0
LINE
  5
419
330
1F
100
AcDbEntity
  8
0
  6
Continuous
 62
     7
370
     0
100
AcDbLine
 10
13.83971860707083
 20
7.381063377789588
 30
0.0
 11
13.83820378482618
 21
7.381063377789588
 31
0.0
  0
LINE
  5
41A
330
1F
100
AcDbEntity
  8
0
  6
Continuous
 62
     7
370
     0
100
AcDbLine
 10
13.83971860707083
 20
7.385063377979578
 30
0.0
 11
13.83820378482618
 21
7.385063377979578
 31
0.0
  0
LINE
  5
445
330
1F
100
AcDbEntity
  8
0
  6
Continuous
 62
     7
370
     0
100
AcDbLine
 10
14.11320379078665
 20
7.379063377694593
 30
0.0
 11
14.11320379078665
 21
7.381063377789588
 31
0.0
  0
LINE
  5
446
330
1F
100
AcDbEntity
  8
0
  6
Continuous
 62
     7
370
     0
100
AcDbLine
 10
14.11120378673353
 20
7.379063377694593
 30
0.0
 11
14.11320379078665
 21
7.379063377694593
 31
0.0
  0
LINE
  5
447
330
1F
100
AcDbEntity
  8
0
  6
Continuous
 62
     7
370
     0
100
AcDbLine
 10
14.11120378673353
 20
7.387063378074573
 30
0.0
 11
14.11120378673353
 21
7.379063377694593
 31
0.0
  0
LINE
  5
448
330
1F
100
AcDbEntity
  8
0
  6
Continuous
 62
     7
370
     0
100
AcDbLine
 10
14.11320379078665
 20
7.387063378074573
 30
0.0
 11
14.11120378673353
 21
7.387063378074573
 31
0.0
  0
LINE
  5
449
330
1F
100
AcDbEntity
  8
0
  6
Continuous
 62
     7
370
     0
100
AcDbLine
 10
14.11320379078665
 20
7.385063377979578
 30
0.0
 11
14.11320379078665
 21
7.387063378074573
 31
0.0
  0
LINE
  5
44A
330
1F
100
AcDbEntity
  8
0
  6
Continuous
 62
     7
370
     0
100
AcDbLine
 10
14.11320379078665
 20
7.385063377979578
 30
0.0
 11
14.15070378482618
 21
7.385063377979578
 31
0.0
  0
LINE
  5
44B
330
1F
100
AcDbEntity
  8
0
  6
Continuous
 62
     7
370
     0
100
AcDbLine
 10
14.15070378482618
 20
7.385063377979578
 30
0.0
 11
14.15070378482618
 21
7.381063377789588
 31
0.0
  0
LINE
  5
44C
330
1F
100
AcDbEntity
  8
0
  6
Continuous
 62
     7
370
     0
100
AcDbLine
 10
14.11320379078665
 20
7.381063377789588
 30
0.0
 11
14.15070378482618
 21
7.381063377789588
 31
0.0
  0
LINE
  5
44D
330
1F
100
AcDbEntity
  8
0
  6
Continuous
 62
     7
370
     0
100
AcDbLine
 10
14.11320379078665
 20
7.387063378074573
 30
0.0
 11
14.15070378482618
 21
7.387063378074573
 31
0.0
  0
LINE
  5
44E
330
1F
100
AcDbEntity
  8
0
  6
Continuous
 62
     7
370
     0
100
AcDbLine
 10
14.15070378482618
 20
7.387063378074573
 30
0.0
 11
14.15070378482618
 21
7.385063377979578
 31
0.0
  0
LINE
  5
44F
330
1F
100
AcDbEntity
  8
0
  6
Continuous
 62
     7
370
     0
100
AcDbLine
 10
14.15070378482618
 20
7.381063377789588
 30
0.0
 11
14.15070378482618
 21
7.379063377694593
 31
0.0
  0
LINE
  5
450
330
1F
100
AcDbEntity
  8
0
  6
Continuous
 62
     7
370
     0
100
AcDbLine
 10
14.15070378482618
 20
7.379063377694593
 30
0.0
 11
14.11320379078665
 21
7.379063377694593
 31
0.0
  0
LINE
  5
451
330
1F
100
AcDbEntity
  8
0
  6
Continuous
 62
     7
370
     0
100
AcDbLine
 10
14.10968896448889
 20
7.385063377979578
 30
0.0
 11
14.11120378673353
 21
7.385063377979578
 31
0.0
  0
LINE
  5
452
330
1F
100
AcDbEntity
  8
0
  6
Continuous
 62
     7
370
     0
100
AcDbLine
 10
14.10968896448889
 20
7.381063377789588
 30
0.0
 11
14.11120378673353
 21
7.381063377789588
 31
0.0
  0
DIMENSION
  5
481
330
1F
100
AcDbEntity
  8
S&C_cotas
  6
Continuous
100
AcDbDimension
  2
*D30
 10
13.70719535825549
 20
7.207312625472452
 30
0.0
 11
13.70719535825549
 21
7.356141491076188
 31
0.0
 70
   160
  1
35 cm / 14”
 71
    76
 72
   250
 41
0.0
 42
0.3517507514584564
  3
S&C_cotas
100
AcDbAlignedDimension
 13
13.77870378673353
 23
7.559063376930909
 33
0.0
 14
13.77870378673353
 24
7.207312625472452
 34
0.0
 50
90.0
100
AcDbRotatedDimension
  0
ENDSEC
  0
SECTION
  2
OBJECTS
  0
DICTIONARY
  5
C
330
0
100
AcDbDictionary
281
     1
  3
ACAD_GROUP
350
D
  3
ACAD_IMAGE_VARS
350
227
  3
ACAD_LAYOUT
350
1A
  3
ACAD_MLINESTYLE
350
17
  3
ACAD_PLOTSETTINGS
350
19
  3
ACAD_PLOTSTYLENAME
350
E
  3
ACAD_SCALELIST
350
47
  3
AcDbVariableDictionary
350
3CF
  3
APPDATA
350
226
  3
DWGPROPS
350
48D
  0
DICTIONARY
  5
D
102
{ACAD_REACTORS
330
C
102
}
330
C
100
AcDbDictionary
281
     1
  0
RASTERVARIABLES
  5
227
102
{ACAD_REACTORS
330
C
102
}
330
C
100
AcDbRasterVariables
 90
        0
 70
     1
 71
     1
 72
     1
  0
DICTIONARY
  5
1A
102
{ACAD_REACTORS
330
C
102
}
330
C
100
AcDbDictionary
281
     1
  3
Layout1
350
1E
  3
Layout2
350
26
  3
Model
350
22
  0
DICTIONARY
  5
17
102
{ACAD_REACTORS
330
C
102
}
330
C
100
AcDbDictionary
281
     1
  3
Standard
350
18
  0
DICTIONARY
  5
19
102
{ACAD_REACTORS
330
C
102
}
330
C
100
AcDbDictionary
281
     1
  0
ACDBDICTIONARYWDFLT
  5
E
102
{ACAD_REACTORS
330
C
102
}
330
C
100
AcDbDictionary
281
     1
  3
Normal
350
F
100
AcDbDictionaryWithDefault
340
F
  0
DICTIONARY
  5
47
102
{ACAD_REACTORS
330
C
102
}
330
C
100
AcDbDictionary
281
     1
  3
A0
350
48
  3
A1
350
49
  3
A2
350
4A
  3
A3
350
4B
  3
A4
350
4C
  3
A5
350
4D
  3
A6
350
4E
  3
A7
350
4F
  3
A8
350
50
  3
A9
350
51
  3
B0
350
52
  3
B1
350
53
  3
B2
350
54
  3
B3
350
55
  3
B4
350
56
  3
B5
350
57
  3
B6
350
58
  3
B7
350
59
  3
B8
350
5A
  3
B9
350
5B
  3
C0
350
5C
  3
C1
350
5D
  3
C2
350
5E
  3
C3
350
5F
  3
C4
350
60
  3
C5
350
61
  3
C6
350
62
  3
C7
350
63
  3
C8
350
64
  3
C9
350
65
  3
D0
350
66
  3
D1
350
67
  3
D2
350
68
  0
DICTIONARY
  5
3CF
102
{ACAD_REACTORS
330
C
102
}
330
C
100
AcDbDictionary
281
     1
  3
CANNOSCALE
350
48C
  0
DICTIONARY
  5
226
102
{ACAD_REACTORS
330
C
102
}
330
C
100
AcDbDictionary
281
     1
  0
XRECORD
  5
48D
102
{ACAD_REACTORS
330
C
102
}
330
C
100
AcDbXrecord
280
     1
  1
DWGPROPS COOKIE
  2

  3

  4

  6

  7

  8
Andrea.Obradors
  9

300
=
301
=
302
=
303
=
304
=
305
=
306
=
307
=
308
=
309
=
 40
0.0
 41
2457353.564216157
 42
2457465.51841118
  1

 90
        0
  0
LAYOUT
  5
1E
102
{ACAD_REACTORS
330
1A
102
}
330
1A
100
AcDbPlotSettings
  1

  2
none_device
  4

  6

 40
0.0
 41
0.0
 42
0.0
 43
0.0
 44
0.0
 45
0.0
 46
0.0
 47
0.0
 48
0.0
 49
0.0
140
0.0
141
0.0
142
1.0
143
1.0
 70
   688
 72
     1
 73
     0
 74
     5
  7

 75
    16
147
1.0
148
0.0
149
0.0
100
AcDbLayout
  1
Layout1
 70
     1
 71
     1
 10
0.0
 20
0.0
 11
420.0
 21
297.0
 12
0.0
 22
0.0
 32
0.0
 14
1.000000000000000E+20
 24
1.000000000000000E+20
 34
1.000000000000000E+20
 15
-1.000000000000000E+20
 25
-1.000000000000000E+20
 35
-1.000000000000000E+20
146
0.0
 13
0.0
 23
0.0
 33
0.0
 16
1.0
 26
0.0
 36
0.0
 17
0.0
 27
1.0
 37
0.0
 76
     0
330
1B
  0
LAYOUT
  5
26
102
{ACAD_REACTORS
330
1A
102
}
330
1A
100
AcDbPlotSettings
  1

  2
none_device
  4

  6

 40
0.0
 41
0.0
 42
0.0
 43
0.0
 44
0.0
 45
0.0
 46
0.0
 47
0.0
 48
0.0
 49
0.0
140
0.0
141
0.0
142
1.0
143
1.0
 70
   688
 72
     1
 73
     0
 74
     5
  7

 75
    16
147
1.0
148
0.0
149
0.0
100
AcDbLayout
  1
Layout2
 70
     1
 71
     2
 10
0.0
 20
0.0
 11
0.0
 21
0.0
 12
0.0
 22
0.0
 32
0.0
 14
0.0
 24
0.0
 34
0.0
 15
0.0
 25
0.0
 35
0.0
146
0.0
 13
0.0
 23
0.0
 33
0.0
 16
1.0
 26
0.0
 36
0.0
 17
0.0
 27
1.0
 37
0.0
 76
     0
330
23
  0
LAYOUT
  5
22
102
{ACAD_REACTORS
330
1A
102
}
330
1A
100
AcDbPlotSettings
  1

  2
none_device
  4
Letter_(8.50_x_11.00_Inches)
  6

 40
6.35
 41
6.35
 42
6.35000508
 43
6.35000508
 44
215.9
 45
279.4
 46
0.0
 47
0.0
 48
0.0
 49
0.0
140
0.0
141
0.0
142
1.0
143
1.0
 70
  1712
 72
     1
 73
     0
 74
     0
  7

 75
     0
147
1.0
148
0.0
149
0.0
100
AcDbLayout
  1
Model
 70
     1
 71
     0
 10
0.0
 20
0.0
 11
29.7
 21
21.0
 12
0.0
 22
0.0
 32
0.0
 14
0.0
 24
0.0
 34
0.0
 15
29.7
 25
21.0
 35
0.0
146
0.0
 13
0.0
 23
0.0
 33
0.0
 16
1.0
 26
0.0
 36
0.0
 17
0.0
 27
1.0
 37
0.0
 76
     0
330
1F
331
29
  0
MLINESTYLE
  5
18
102
{ACAD_REACTORS
330
17
102
}
330
17
100
AcDbMlineStyle
  2
Standard
 70
     0
  3

 62
   256
 51
90.0
 52
90.0
 71
     2
 49
0.5
 62
   256
  6
BYLAYER
 49
-0.5
 62
   256
  6
BYLAYER
  0
ACDBPLACEHOLDER
  5
F
102
{ACAD_REACTORS
330
E
102
}
330
E
  0
SCALE
  5
48
102
{ACAD_REACTORS
330
47
102
}
330
47
100
AcDbScale
 70
     0
300
1:1
140
1.0
141
1.0
290
     1
  0
SCALE
  5
49
102
{ACAD_REACTORS
330
47
102
}
330
47
100
AcDbScale
 70
     0
300
1:2
140
1.0
141
2.0
290
     0
  0
SCALE
  5
4A
102
{ACAD_REACTORS
330
47
102
}
330
47
100
AcDbScale
 70
     0
300
1:4
140
1.0
141
4.0
290
     0
  0
SCALE
  5
4B
102
{ACAD_REACTORS
330
47
102
}
330
47
100
AcDbScale
 70
     0
300
1:5
140
1.0
141
5.0
290
     0
  0
SCALE
  5
4C
102
{ACAD_REACTORS
330
47
102
}
330
47
100
AcDbScale
 70
     0
300
1:8
140
1.0
141
8.0
290
     0
  0
SCALE
  5
4D
102
{ACAD_REACTORS
330
47
102
}
330
47
100
AcDbScale
 70
     0
300
1:10
140
1.0
141
10.0
290
     0
  0
SCALE
  5
4E
102
{ACAD_REACTORS
330
47
102
}
330
47
100
AcDbScale
 70
     0
300
1:16
140
1.0
141
16.0
290
     0
  0
SCALE
  5
4F
102
{ACAD_REACTORS
330
47
102
}
330
47
100
AcDbScale
 70
     0
300
1:20
140
1.0
141
20.0
290
     0
  0
SCALE
  5
50
102
{ACAD_REACTORS
330
47
102
}
330
47
100
AcDbScale
 70
     0
300
1:30
140
1.0
141
30.0
290
     0
  0
SCALE
  5
51
102
{ACAD_REACTORS
330
47
102
}
330
47
100
AcDbScale
 70
     0
300
1:40
140
1.0
141
40.0
290
     0
  0
SCALE
  5
52
102
{ACAD_REACTORS
330
47
102
}
330
47
100
AcDbScale
 70
     0
300
1:50
140
1.0
141
50.0
290
     0
  0
SCALE
  5
53
102
{ACAD_REACTORS
330
47
102
}
330
47
100
AcDbScale
 70
     0
300
1:100
140
1.0
141
100.0
290
     0
  0
SCALE
  5
54
102
{ACAD_REACTORS
330
47
102
}
330
47
100
AcDbScale
 70
     0
300
2:1
140
2.0
141
1.0
290
     0
  0
SCALE
  5
55
102
{ACAD_REACTORS
330
47
102
}
330
47
100
AcDbScale
 70
     0
300
4:1
140
4.0
141
1.0
290
     0
  0
SCALE
  5
56
102
{ACAD_REACTORS
330
47
102
}
330
47
100
AcDbScale
 70
     0
300
8:1
140
8.0
141
1.0
290
     0
  0
SCALE
  5
57
102
{ACAD_REACTORS
330
47
102
}
330
47
100
AcDbScale
 70
     0
300
10:1
140
10.0
141
1.0
290
     0
  0
SCALE
  5
58
102
{ACAD_REACTORS
330
47
102
}
330
47
100
AcDbScale
 70
     0
300
100:1
140
100.0
141
1.0
290
     0
  0
SCALE
  5
59
102
{ACAD_REACTORS
330
47
102
}
330
47
100
AcDbScale
 70
     0
300
1/128" = 1'-0"
140
0.0078125
141
12.0
290
     0
  0
SCALE
  5
5A
102
{ACAD_REACTORS
330
47
102
}
330
47
100
AcDbScale
 70
     0
300
1/64" = 1'-0"
140
0.015625
141
12.0
290
     0
  0
SCALE
  5
5B
102
{ACAD_REACTORS
330
47
102
}
330
47
100
AcDbScale
 70
     0
300
1/32" = 1'-0"
140
0.03125
141
12.0
290
     0
  0
SCALE
  5
5C
102
{ACAD_REACTORS
330
47
102
}
330
47
100
AcDbScale
 70
     0
300
1/16" = 1'-0"
140
0.0625
141
12.0
290
     0
  0
SCALE
  5
5D
102
{ACAD_REACTORS
330
47
102
}
330
47
100
AcDbScale
 70
     0
300
3/32" = 1'-0"
140
0.09375
141
12.0
290
     0
  0
SCALE
  5
5E
102
{ACAD_REACTORS
330
47
102
}
330
47
100
AcDbScale
 70
     0
300
1/8" = 1'-0"
140
0.125
141
12.0
290
     0
  0
SCALE
  5
5F
102
{ACAD_REACTORS
330
47
102
}
330
47
100
AcDbScale
 70
     0
300
3/16" = 1'-0"
140
0.1875
141
12.0
290
     0
  0
SCALE
  5
60
102
{ACAD_REACTORS
330
47
102
}
330
47
100
AcDbScale
 70
     0
300
1/4" = 1'-0"
140
0.25
141
12.0
290
     0
  0
SCALE
  5
61
102
{ACAD_REACTORS
330
47
102
}
330
47
100
AcDbScale
 70
     0
300
3/8" = 1'-0"
140
0.375
141
12.0
290
     0
  0
SCALE
  5
62
102
{ACAD_REACTORS
330
47
102
}
330
47
100
AcDbScale
 70
     0
300
1/2" = 1'-0"
140
0.5
141
12.0
290
     0
  0
SCALE
  5
63
102
{ACAD_REACTORS
330
47
102
}
330
47
100
AcDbScale
 70
     0
300
3/4" = 1'-0"
140
0.75
141
12.0
290
     0
  0
SCALE
  5
64
102
{ACAD_REACTORS
330
47
102
}
330
47
100
AcDbScale
 70
     0
300
1" = 1'-0"
140
1.0
141
12.0
290
     0
  0
SCALE
  5
65
102
{ACAD_REACTORS
330
47
102
}
330
47
100
AcDbScale
 70
     0
300
1-1/2" = 1'-0"
140
1.5
141
12.0
290
     0
  0
SCALE
  5
66
102
{ACAD_REACTORS
330
47
102
}
330
47
100
AcDbScale
 70
     0
300
3" = 1'-0"
140
3.0
141
12.0
290
     0
  0
SCALE
  5
67
102
{ACAD_REACTORS
330
47
102
}
330
47
100
AcDbScale
 70
     0
300
6" = 1'-0"
140
6.0
141
12.0
290
     0
  0
SCALE
  5
68
102
{ACAD_REACTORS
330
47
102
}
330
47
100
AcDbScale
 70
     0
300
1'-0" = 1'-0"
140
12.0
141
12.0
290
     0
  0
DICTIONARYVAR
  5
48C
102
{ACAD_REACTORS
330
3CF
102
}
330
3CF
100
DictionaryVariables
280
     0
  1
1:1
  0
ENDSEC
  0
EOF
