  0
SECTION
  2
HEADER
  9
$ACADVER
  1
AC1021
  9
$ACADMAINTVER
 70
    25
  9
$DWGCODEPAGE
  3
ANSI_1252
  9
$LASTSAVEDBY
  1
Josep Sancho
  9
$INSBASE
 10
0.0
 20
0.0
 30
0.0
  9
$EXTMIN
 10
1.5768713071
 20
4.2956031328
 30
0.0
  9
$EXTMAX
 10
4201.5768713071
 20
5944.2956031328
 30
0.1
  9
$LIMMIN
 10
0.0
 20
0.0
  9
$LIMMAX
 10
4200.0
 20
5940.0
  9
$ORTHOMODE
 70
     0
  9
$REGENMODE
 70
     1
  9
$FILLMODE
 70
     1
  9
$QTEXTMODE
 70
     0
  9
$MIRRTEXT
 70
     1
  9
$LTSCALE
 40
20.0
  9
$ATTMODE
 70
     1
  9
$TEXTSIZE
 40
70.0
  9
$TRACEWID
 40
1.0
  9
$TEXTSTYLE
  7
Standard
  9
$CLAYER
  8
0
  9
$CELTYPE
  6
ByLayer
  9
$CECOLOR
 62
   256
  9
$CELTSCALE
 40
1.0
  9
$DISPSILH
 70
     0
  9
$DIMSCALE
 40
1.0
  9
$DIMASZ
 40
66.04
  9
$DIMEXO
 40
20.0
  9
$DIMDLI
 40
3.75
  9
$DIMRND
 40
0.0
  9
$DIMDLE
 40
0.0
  9
$DIMEXE
 40
20.0
  9
$DIMTP
 40
0.0
  9
$DIMTM
 40
0.0
  9
$DIMTXT
 40
70.0
  9
$DIMCEN
 40
2.5
  9
$DIMTSZ
 40
0.0
  9
$DIMTOL
 70
     0
  9
$DIMLIM
 70
     0
  9
$DIMTIH
 70
     1
  9
$DIMTOH
 70
     1
  9
$DIMSE1
 70
     0
  9
$DIMSE2
 70
     0
  9
$DIMTAD
 70
     1
  9
$DIMZIN
 70
     0
  9
$DIMBLK
  1

  9
$DIMASO
 70
     1
  9
$DIMSHO
 70
     1
  9
$DIMPOST
  1

  9
$DIMAPOST
  1

  9
$DIMALT
 70
     0
  9
$DIMALTD
 70
     3
  9
$DIMALTF
 40
0.0393700787
  9
$DIMLFAC
 40
1.0
  9
$DIMTOFL
 70
     1
  9
$DIMTVP
 40
0.0
  9
$DIMTIX
 70
     0
  9
$DIMSOXD
 70
     0
  9
$DIMSAH
 70
     0
  9
$DIMBLK1
  1

  9
$DIMBLK2
  1

  9
$DIMSTYLE
  2
ISO-25
  9
$DIMCLRD
 70
     0
  9
$DIMCLRE
 70
     0
  9
$DIMCLRT
 70
     0
  9
$DIMTFAC
 40
1.0
  9
$DIMGAP
 40
30.48
  9
$DIMJUST
 70
     0
  9
$DIMSD1
 70
     0
  9
$DIMSD2
 70
     0
  9
$DIMTOLJ
 70
     0
  9
$DIMTZIN
 70
     0
  9
$DIMALTZ
 70
     0
  9
$DIMALTTZ
 70
     0
  9
$DIMUPT
 70
     0
  9
$DIMDEC
 70
     3
  9
$DIMTDEC
 70
     3
  9
$DIMALTU
 70
     2
  9
$DIMALTTD
 70
     3
  9
$DIMTXSTY
  7
Standard
  9
$DIMAUNIT
 70
     0
  9
$DIMADEC
 70
     2
  9
$DIMALTRND
 40
0.0
  9
$DIMAZIN
 70
     0
  9
$DIMDSEP
 70
    44
  9
$DIMATFIT
 70
     3
  9
$DIMFRAC
 70
     0
  9
$DIMLDRBLK
  1

  9
$DIMLUNIT
 70
     2
  9
$DIMLWD
 70
    -2
  9
$DIMLWE
 70
    -2
  9
$DIMTMOVE
 70
     0
  9
$DIMFXL
 40
1.0
  9
$DIMFXLON
 70
     0
  9
$DIMJOGANG
 40
0.7853981633974483
  9
$DIMTFILL
 70
     0
  9
$DIMTFILLCLR
 70
     0
  9
$DIMARCSYM
 70
     0
  9
$DIMLTYPE
  6

  9
$DIMLTEX1
  6

  9
$DIMLTEX2
  6

  9
$LUNITS
 70
     2
  9
$LUPREC
 70
     2
  9
$SKETCHINC
 40
1.0
  9
$FILLETRAD
 40
10.0
  9
$AUNITS
 70
     0
  9
$AUPREC
 70
     2
  9
$MENU
  1
.
  9
$ELEVATION
 40
0.0
  9
$PELEVATION
 40
0.0
  9
$THICKNESS
 40
0.0
  9
$LIMCHECK
 70
     0
  9
$CHAMFERA
 40
10.0
  9
$CHAMFERB
 40
10.0
  9
$CHAMFERC
 40
20.0
  9
$CHAMFERD
 40
0.0
  9
$SKPOLY
 70
     0
  9
$TDCREATE
 40
2453353.800459155
  9
$TDUCREATE
 40
2453353.717125822
  9
$TDUPDATE
 40
2457309.870249074
  9
$TDUUPDATE
 40
2457309.786915741
  9
$TDINDWG
 40
0.0434375116
  9
$TDUSRTIMER
 40
0.0434375116
  9
$USRTIMER
 70
     1
  9
$ANGBASE
 50
0.0
  9
$ANGDIR
 70
     0
  9
$PDMODE
 70
     0
  9
$PDSIZE
 40
-1.0
  9
$PLINEWID
 40
0.0
  9
$SPLFRAME
 70
     0
  9
$SPLINETYPE
 70
     6
  9
$SPLINESEGS
 70
     8
  9
$HANDSEED
  5
438
  9
$SURFTAB1
 70
     6
  9
$SURFTAB2
 70
     6
  9
$SURFTYPE
 70
     6
  9
$SURFU
 70
     6
  9
$SURFV
 70
     6
  9
$UCSBASE
  2

  9
$UCSNAME
  2

  9
$UCSORG
 10
0.0
 20
0.0
 30
0.0
  9
$UCSXDIR
 10
1.0
 20
0.0
 30
0.0
  9
$UCSYDIR
 10
0.0
 20
1.0
 30
0.0
  9
$UCSORTHOREF
  2

  9
$UCSORTHOVIEW
 70
     0
  9
$UCSORGTOP
 10
0.0
 20
0.0
 30
0.0
  9
$UCSORGBOTTOM
 10
0.0
 20
0.0
 30
0.0
  9
$UCSORGLEFT
 10
0.0
 20
0.0
 30
0.0
  9
$UCSORGRIGHT
 10
0.0
 20
0.0
 30
0.0
  9
$UCSORGFRONT
 10
0.0
 20
0.0
 30
0.0
  9
$UCSORGBACK
 10
0.0
 20
0.0
 30
0.0
  9
$PUCSBASE
  2

  9
$PUCSNAME
  2

  9
$PUCSORG
 10
0.0
 20
0.0
 30
0.0
  9
$PUCSXDIR
 10
1.0
 20
0.0
 30
0.0
  9
$PUCSYDIR
 10
0.0
 20
1.0
 30
0.0
  9
$PUCSORTHOREF
  2

  9
$PUCSORTHOVIEW
 70
     0
  9
$PUCSORGTOP
 10
0.0
 20
0.0
 30
0.0
  9
$PUCSORGBOTTOM
 10
0.0
 20
0.0
 30
0.0
  9
$PUCSORGLEFT
 10
0.0
 20
0.0
 30
0.0
  9
$PUCSORGRIGHT
 10
0.0
 20
0.0
 30
0.0
  9
$PUCSORGFRONT
 10
0.0
 20
0.0
 30
0.0
  9
$PUCSORGBACK
 10
0.0
 20
0.0
 30
0.0
  9
$USERI1
 70
     0
  9
$USERI2
 70
     0
  9
$USERI3
 70
     0
  9
$USERI4
 70
     0
  9
$USERI5
 70
     0
  9
$USERR1
 40
0.0
  9
$USERR2
 40
0.0
  9
$USERR3
 40
0.0
  9
$USERR4
 40
0.0
  9
$USERR5
 40
0.0
  9
$WORLDVIEW
 70
     1
  9
$SHADEDGE
 70
     3
  9
$SHADEDIF
 70
    70
  9
$TILEMODE
 70
     1
  9
$MAXACTVP
 70
    64
  9
$PINSBASE
 10
0.0
 20
0.0
 30
0.0
  9
$PLIMCHECK
 70
     0
  9
$PEXTMIN
 10
1.000000000000000E+20
 20
1.000000000000000E+20
 30
1.000000000000000E+20
  9
$PEXTMAX
 10
-1.000000000000000E+20
 20
-1.000000000000000E+20
 30
-1.000000000000000E+20
  9
$PLIMMIN
 10
0.0
 20
0.0
  9
$PLIMMAX
 10
420.0
 20
297.0
  9
$UNITMODE
 70
     0
  9
$VISRETAIN
 70
     1
  9
$PLINEGEN
 70
     0
  9
$PSLTSCALE
 70
     1
  9
$TREEDEPTH
 70
  3020
  9
$CMLSTYLE
  2
Standard
  9
$CMLJUST
 70
     0
  9
$CMLSCALE
 40
20.0
  9
$PROXYGRAPHICS
 70
     1
  9
$MEASUREMENT
 70
     1
  9
$CELWEIGHT
370
    -1
  9
$ENDCAPS
280
     0
  9
$JOINSTYLE
280
     0
  9
$LWDISPLAY
290
     1
  9
$INSUNITS
 70
     4
  9
$HYPERLINKBASE
  1

  9
$STYLESHEET
  1

  9
$XEDIT
290
     0
  9
$CEPSNTYPE
380
     0
  9
$PSTYLEMODE
290
     1
  9
$FINGERPRINTGUID
  2
{E142EAE9-3C32-4EB8-9574-478EB951315B}
  9
$VERSIONGUID
  2
{FAEB1C32-E019-11D5-929B-00C0DF256EC4}
  9
$EXTNAMES
290
     1
  9
$PSVPSCALE
 40
0.0
  9
$OLESTARTUP
290
     0
  9
$SORTENTS
280
   127
  9
$INDEXCTL
280
     0
  9
$HIDETEXT
280
     1
  9
$XCLIPFRAME
290
     0
  9
$HALOGAP
280
     0
  9
$OBSCOLOR
 70
   257
  9
$OBSLTYPE
280
     0
  9
$INTERSECTIONDISPLAY
280
     0
  9
$INTERSECTIONCOLOR
 70
   257
  9
$DIMASSOC
280
     2
  9
$PROJECTNAME
  1

  9
$CAMERADISPLAY
290
     0
  9
$LENSLENGTH
 40
50.0
  9
$CAMERAHEIGHT
 40
0.0
  9
$STEPSPERSEC
 40
2.0
  9
$STEPSIZE
 40
6.0
  9
$3DDWFPREC
 40
2.0
  9
$PSOLWIDTH
 40
0.25
  9
$PSOLHEIGHT
 40
4.0
  9
$LOFTANG1
 40
1.570796326794897
  9
$LOFTANG2
 40
1.570796326794897
  9
$LOFTMAG1
 40
0.0
  9
$LOFTMAG2
 40
0.0
  9
$LOFTPARAM
 70
     7
  9
$LOFTNORMALS
280
     1
  9
$LATITUDE
 40
37.795
  9
$LONGITUDE
 40
-122.394
  9
$NORTHDIRECTION
 40
0.0
  9
$TIMEZONE
 70
 -8000
  9
$LIGHTGLYPHDISPLAY
280
     1
  9
$TILEMODELIGHTSYNCH
280
     1
  9
$SOLIDHIST
280
     1
  9
$SHOWHIST
280
     1
  9
$DWFFRAME
280
     2
  9
$DGNFRAME
280
     2
  9
$REALWORLDSCALE
290
     1
  9
$INTERFERECOLOR
 62
   256
  9
$CSHADOW
280
     0
  9
$SHADOWPLANELOCATION
 40
0.0
  0
ENDSEC
  0
SECTION
  2
CLASSES
  0
CLASS
  1
ACDBDICTIONARYWDFLT
  2
AcDbDictionaryWithDefault
  3
ObjectDBX Classes
 90
        0
 91
        4
280
     0
281
     0
  0
CLASS
  1
ACDBPLACEHOLDER
  2
AcDbPlaceHolder
  3
ObjectDBX Classes
 90
        0
 91
        1
280
     0
281
     0
  0
CLASS
  1
LAYOUT
  2
AcDbLayout
  3
ObjectDBX Classes
 90
        0
 91
        1
280
     0
281
     0
  0
CLASS
  1
DICTIONARYVAR
  2
AcDbDictionaryVar
  3
ObjectDBX Classes
 90
        0
 91
        4
280
     0
281
     0
  0
CLASS
  1
TABLESTYLE
  2
AcDbTableStyle
  3
ObjectDBX Classes
 90
     4095
 91
        4
280
     0
281
     0
  0
CLASS
  1
SCALE
  2
AcDbScale
  3
ObjectDBX Classes
 90
     1153
 91
        4
280
     0
281
     0
  0
ENDSEC
  0
SECTION
  2
TABLES
  0
TABLE
  2
VPORT
  5
8
330
0
100
AcDbSymbolTable
 70
     2
  0
VPORT
  5
97
330
8
100
AcDbSymbolTableRecord
100
AcDbViewportTableRecord
  2
*Active
 70
     0
 10
0.0
 20
0.0
 11
1.0
 21
1.0
 12
2360.031786538147
 22
3608.672750883515
 13
0.0
 23
0.0
 14
10.0
 24
10.0
 15
10.0
 25
10.0
 16
0.0
 26
0.0
 36
1.0
 17
0.0
 27
0.0
 37
0.0
 40
5033.691076328384
 41
0.7070707071
 42
50.0
 43
0.0
 44
0.0
 50
0.0
 51
0.0
 71
    16
 72
  2000
 73
     1
 74
     3
 75
     0
 76
     0
 77
     0
 78
     0
281
     0
 65
     0
110
0.0
120
0.0
130
0.0
111
1.0
121
0.0
131
0.0
112
0.0
122
1.0
132
0.0
 79
     0
146
0.0
 60
     3
 61
     5
292
     1
282
     1
141
0.0
142
0.0
 63
   256
  0
ENDTAB
  0
TABLE
  2
LTYPE
  5
5
330
0
100
AcDbSymbolTable
 70
     6
  0
LTYPE
  5
14
330
5
100
AcDbSymbolTableRecord
100
AcDbLinetypeTableRecord
  2
ByBlock
 70
     0
  3

 72
    65
 73
     0
 40
0.0
  0
LTYPE
  5
15
330
5
100
AcDbSymbolTableRecord
100
AcDbLinetypeTableRecord
  2
ByLayer
 70
     0
  3

 72
    65
 73
     0
 40
0.0
  0
LTYPE
  5
16
330
5
100
AcDbSymbolTableRecord
100
AcDbLinetypeTableRecord
  2
Continuous
 70
     0
  3
Solid line
 72
    65
 73
     0
 40
0.0
  0
LTYPE
  5
3FB
330
5
100
AcDbSymbolTableRecord
100
AcDbLinetypeTableRecord
  2
HIDDEN
 70
     0
  3
Hidden __ __ __ __ __ __ __ __ __ __ __ __ __ __
 72
    65
 73
     2
 40
1.905
 49
1.27
 74
     4
 75
     0
340
0
 46
1.0
 50
0.0
 44
0.0
 45
0.0
 49
-0.635
 74
     4
 75
     0
340
0
 46
1.0
 50
0.0
 44
0.0
 45
0.0
  0
LTYPE
  5
3FC
330
5
100
AcDbSymbolTableRecord
100
AcDbLinetypeTableRecord
  2
PHANTOM
 70
     0
  3
Phantom ______  __  __  ______  __  __  ______
 72
    65
 73
     6
 40
12.7
 49
6.35
 74
     4
 75
     0
340
0
 46
1.0
 50
0.0
 44
0.0
 45
0.0
 49
-1.27
 74
     4
 75
     0
340
0
 46
1.0
 50
0.0
 44
0.0
 45
0.0
 49
1.27
 74
     4
 75
     0
340
0
 46
1.0
 50
0.0
 44
0.0
 45
0.0
 49
-1.27
 74
     4
 75
     0
340
0
 46
1.0
 50
0.0
 44
0.0
 45
0.0
 49
1.27
 74
     4
 75
     0
340
0
 46
1.0
 50
0.0
 44
0.0
 45
0.0
 49
-1.27
 74
     4
 75
     0
340
0
 46
1.0
 50
0.0
 44
0.0
 45
0.0
  0
LTYPE
  5
3FD
330
5
100
AcDbSymbolTableRecord
100
AcDbLinetypeTableRecord
  2
CENTER
 70
     0
  3
Center ____ _ ____ _ ____ _ ____ _ ____ _ ____
 72
    65
 73
     4
 40
10.16
 49
6.35
 74
     4
 75
     0
340
0
 46
1.0
 50
0.0
 44
0.0
 45
0.0
 49
-1.27
 74
     4
 75
     0
340
0
 46
1.0
 50
0.0
 44
0.0
 45
0.0
 49
1.27
 74
     4
 75
     0
340
0
 46
1.0
 50
0.0
 44
0.0
 45
0.0
 49
-1.27
 74
     4
 75
     0
340
0
 46
1.0
 50
0.0
 44
0.0
 45
0.0
  0
LTYPE
  5
3FE
330
5
100
AcDbSymbolTableRecord
100
AcDbLinetypeTableRecord
  2
CENTERX2
 70
     0
  3
Center (2x) ________  __  ________  __  _____
 72
    65
 73
     4
 40
20.32
 49
12.7
 74
     4
 75
     0
340
0
 46
1.0
 50
0.0
 44
0.0
 45
0.0
 49
-2.54
 74
     4
 75
     0
340
0
 46
1.0
 50
0.0
 44
0.0
 45
0.0
 49
2.54
 74
     4
 75
     0
340
0
 46
1.0
 50
0.0
 44
0.0
 45
0.0
 49
-2.54
 74
     4
 75
     0
340
0
 46
1.0
 50
0.0
 44
0.0
 45
0.0
  0
LTYPE
  5
3FF
330
5
100
AcDbSymbolTableRecord
100
AcDbLinetypeTableRecord
  2
DOT2
 70
     0
  3
Dot (.5x) ........................................
 72
    65
 73
     2
 40
0.635
 49
0.0
 74
     4
 75
     0
340
0
 46
1.0
 50
0.0
 44
0.0
 45
0.0
 49
-0.635
 74
     4
 75
     0
340
0
 46
1.0
 50
0.0
 44
0.0
 45
0.0
  0
ENDTAB
  0
TABLE
  2
LAYER
  5
2
330
0
100
AcDbSymbolTable
 70
     2
  0
LAYER
  5
10
330
2
100
AcDbSymbolTableRecord
100
AcDbLayerTableRecord
  2
0
 70
     0
 62
     7
  6
Continuous
370
    -3
390
F
347
0
  0
LAYER
  5
44
330
2
100
AcDbSymbolTableRecord
100
AcDbLayerTableRecord
  2
FORMAT
 70
     0
 62
     7
  6
Continuous
370
    -3
390
F
347
0
  0
ENDTAB
  0
TABLE
  2
STYLE
  5
3
330
0
100
AcDbSymbolTable
 70
     3
  0
STYLE
  5
11
330
3
100
AcDbSymbolTableRecord
100
AcDbTextStyleTableRecord
  2
Standard
 70
     0
 40
0.0
 41
1.0
 50
0.0
 71
     0
 42
70.0
  3
txt
  4

  0
STYLE
  5
68
330
3
100
AcDbSymbolTableRecord
100
AcDbTextStyleTableRecord
  2
SLDTEXTSTYLE0
 70
     0
 40
0.0
 41
0.75
 50
0.0
 71
     0
 42
0.2
  3
TXT
  4

  0
STYLE
  5
3FA
330
3
100
AcDbSymbolTableRecord
100
AcDbTextStyleTableRecord
  2
SLDTEXTSTYLE1
 70
     0
 40
0.0
 41
0.6818181818
 50
0.0
 71
     0
 42
0.2
  3
TXT
  4

  0
ENDTAB
  0
TABLE
  2
VIEW
  5
6
330
0
100
AcDbSymbolTable
 70
     0
  0
ENDTAB
  0
TABLE
  2
UCS
  5
7
330
0
100
AcDbSymbolTable
 70
     0
  0
ENDTAB
  0
TABLE
  2
APPID
  5
9
330
0
100
AcDbSymbolTable
 70
     1
  0
APPID
  5
12
330
9
100
AcDbSymbolTableRecord
100
AcDbRegAppTableRecord
  2
ACAD
 70
     0
  0
ENDTAB
  0
TABLE
  2
DIMSTYLE
  5
A
330
0
100
AcDbSymbolTable
 70
     4
100
AcDbDimStyleTable
  0
DIMSTYLE
105
27
330
A
100
AcDbSymbolTableRecord
100
AcDbDimStyleTableRecord
  2
Standard
 70
     0
278
     0
340
11
  0
DIMSTYLE
105
400
330
A
100
AcDbSymbolTableRecord
100
AcDbDimStyleTableRecord
  2
ISO-25
 70
     0
 41
2.5
 42
0.625
 43
3.75
 44
1.25
 73
     0
 74
     0
 77
     1
 78
     8
140
2.5
141
2.5
143
0.0393700787
147
0.625
171
     3
172
     1
271
     2
272
     2
274
     3
278
    44
283
     0
284
     8
340
11
  0
DIMSTYLE
105
332
102
{ACAD_REACTORS
330
331
330
3BC
102
}
330
A
100
AcDbSymbolTableRecord
100
AcDbDimStyleTableRecord
  2
SLDDIMSTYLE0
 70
     0
 41
66.04
 44
0.0
 45
0.000000001
 73
     0
 74
     0
 77
     1
 78
    12
 79
     3
140
70.0
147
17.5
173
     1
271
     3
272
     3
276
     2
284
    12
340
68
  0
DIMSTYLE
105
33D
102
{ACAD_REACTORS
330
33C
330
347
102
}
330
A
100
AcDbSymbolTableRecord
100
AcDbDimStyleTableRecord
  2
SLDDIMSTYLE1
 70
     0
  3
<>
 41
66.04
 44
0.0
 45
0.000000001
 78
    12
 79
     3
140
70.0
141
0.0
147
17.5
173
     1
271
     3
272
     3
276
     2
284
    12
340
68
  0
ENDTAB
  0
TABLE
  2
BLOCK_RECORD
  5
1
330
0
100
AcDbSymbolTable
 70
     7
  0
BLOCK_RECORD
  5
1F
102
{ACAD_XDICTIONARY
360
435
102
}
330
1
100
AcDbSymbolTableRecord
100
AcDbBlockTableRecord
  2
*Model_Space
340
22
 70
     0
280
     1
281
     0
  0
BLOCK_RECORD
  5
73
330
1
100
AcDbSymbolTableRecord
100
AcDbBlockTableRecord
  2
*Paper_Space
340
74
 70
     0
280
     1
281
     0
  0
BLOCK_RECORD
  5
23
330
1
100
AcDbSymbolTableRecord
100
AcDbBlockTableRecord
  2
*Paper_Space0
340
26
 70
     0
280
     1
281
     0
  0
BLOCK_RECORD
  5
77
330
1
100
AcDbSymbolTableRecord
100
AcDbBlockTableRecord
  2
SW_NOTE_0
340
0
 70
     0
280
     1
281
     0
  0
BLOCK_RECORD
  5
7F
330
1
100
AcDbSymbolTableRecord
100
AcDbBlockTableRecord
  2
SW_NOTE_1
340
0
 70
     0
280
     1
281
     0
  0
BLOCK_RECORD
  5
333
330
1
100
AcDbSymbolTableRecord
100
AcDbBlockTableRecord
  2
_D
340
0
 70
     0
280
     1
281
     0
  0
BLOCK_RECORD
  5
33E
330
1
100
AcDbSymbolTableRecord
100
AcDbBlockTableRecord
  2
_D_1
340
0
 70
     0
280
     1
281
     0
  0
BLOCK_RECORD
  5
348
330
1
100
AcDbSymbolTableRecord
100
AcDbBlockTableRecord
  2
_D_2
340
0
 70
     0
280
     1
281
     0
  0
BLOCK_RECORD
  5
3BD
330
1
100
AcDbSymbolTableRecord
100
AcDbBlockTableRecord
  2
_D_3
340
0
 70
     0
280
     1
281
     0
  0
ENDTAB
  0
ENDSEC
  0
SECTION
  2
BLOCKS
  0
BLOCK
  5
20
330
1F
100
AcDbEntity
  8
0
100
AcDbBlockBegin
  2
*Model_Space
 70
     0
 10
0.0
 20
0.0
 30
0.0
  3
*Model_Space
  1

  0
ENDBLK
  5
21
330
1F
100
AcDbEntity
  8
0
100
AcDbBlockEnd
  0
BLOCK
  5
75
330
73
100
AcDbEntity
 67
     1
  8
0
100
AcDbBlockBegin
  2
*Paper_Space
 70
     0
 10
0.0
 20
0.0
 30
0.0
  3
*Paper_Space
  1

  0
ENDBLK
  5
76
330
73
100
AcDbEntity
 67
     1
  8
0
100
AcDbBlockEnd
  0
BLOCK
  5
401
330
23
100
AcDbEntity
  8
0
100
AcDbBlockBegin
  2
*Paper_Space0
 70
     0
 10
0.0
 20
0.0
 30
0.0
  3
*Paper_Space0
  1

  0
ENDBLK
  5
402
330
23
100
AcDbEntity
  8
0
100
AcDbBlockEnd
  0
BLOCK
  5
403
330
77
100
AcDbEntity
  8
0
100
AcDbBlockBegin
  2
SW_NOTE_0
 70
     0
 10
0.0
 20
0.0
 30
0.0
  3
SW_NOTE_0
  1

  0
MTEXT
  5
7A
330
77
100
AcDbEntity
  8
0
  6
Continuous
 62
     0
370
     0
100
AcDbMText
 10
0.0
 20
38.6720321932
 30
0.0
 40
30.0
 41
0.0
 46
0.0
 71
     1
 72
     1
  1
REBARBAR Y
  7
SLDTEXTSTYLE0
 73
     1
 44
1.0
  0
MTEXT
  5
7B
330
77
100
AcDbEntity
  8
0
  6
Continuous
 62
     0
370
     0
100
AcDbMText
 10
0.0
 20
-11.3279666893
 30
0.0
 40
30.0
 41
0.0
 46
0.0
 71
     1
 72
     1
  1
ROMPER ARISTAS
  7
SLDTEXTSTYLE0
 73
     1
 44
1.0
  0
MTEXT
  5
7C
330
77
100
AcDbEntity
  8
0
  6
Continuous
 62
     0
370
     0
100
AcDbMText
 10
0.0
 20
-61.3279655717
 30
0.0
 40
30.0
 41
0.0
 46
0.0
 71
     1
 72
     1
  1
VIVAS
  7
SLDTEXTSTYLE0
 73
     1
 44
1.0
  0
ENDBLK
  5
404
330
77
100
AcDbEntity
  8
0
100
AcDbBlockEnd
  0
BLOCK
  5
405
330
7F
100
AcDbEntity
  8
0
100
AcDbBlockBegin
  2
SW_NOTE_1
 70
     0
 10
0.0
 20
0.0
 30
0.0
  3
SW_NOTE_1
  1

  0
MTEXT
  5
82
330
7F
100
AcDbEntity
  8
0
  6
Continuous
 62
     0
370
     0
100
AcDbMText
 10
0.0
 20
38.6720321932
 30
0.0
 40
30.0
 41
0.0
 46
0.0
 71
     1
 72
     1
  1
SI NO SE INDICA LO CONTRARIO:
  7
SLDTEXTSTYLE0
 73
     1
 44
1.0
  0
MTEXT
  5
83
330
7F
100
AcDbEntity
  8
0
  6
Continuous
 62
     0
370
     0
100
AcDbMText
 10
0.0
 20
-11.3279666893
 30
0.0
 40
30.0
 41
0.0
 46
0.0
 71
     1
 72
     1
  1
LAS COTAS SE EXPRESAN EN MM
  7
SLDTEXTSTYLE0
 73
     1
 44
1.0
  0
MTEXT
  5
84
330
7F
100
AcDbEntity
  8
0
  6
Continuous
 62
     0
370
     0
100
AcDbMText
 10
0.0
 20
-61.3279655717
 30
0.0
 40
30.0
 41
0.0
 46
0.0
 71
     1
 72
     1
  1
ACABADO SUPERFICIAL:
  7
SLDTEXTSTYLE0
 73
     1
 44
1.0
  0
MTEXT
  5
85
330
7F
100
AcDbEntity
  8
0
  6
Continuous
 62
     0
370
     0
100
AcDbMText
 10
0.0
 20
-111.3279644541
 30
0.0
 40
30.0
 41
0.0
 46
0.0
 71
     1
 72
     1
  1
TOLERANCIAS:
  7
SLDTEXTSTYLE0
 73
     1
 44
1.0
  0
MTEXT
  5
86
330
7F
100
AcDbEntity
  8
0
  6
Continuous
 62
     0
370
     0
100
AcDbMText
 10
33.75
 20
-161.3279633365
 30
0.0
 40
30.0
 41
0.0
 46
0.0
 71
     1
 72
     1
  1
LINEAL:
  7
SLDTEXTSTYLE0
 73
     1
 44
1.0
  0
MTEXT
  5
87
330
7F
100
AcDbEntity
  8
0
  6
Continuous
 62
     0
370
     0
100
AcDbMText
 10
33.75
 20
-211.3279622189
 30
0.0
 40
30.0
 41
0.0
 46
0.0
 71
     1
 72
     1
  1
ANGULAR:
  7
SLDTEXTSTYLE0
 73
     1
 44
1.0
  0
ENDBLK
  5
406
330
7F
100
AcDbEntity
  8
0
100
AcDbBlockEnd
  0
BLOCK
  5
407
330
333
100
AcDbEntity
  8
0
100
AcDbBlockBegin
  2
_D
 70
     0
 10
0.0
 20
0.0
 30
0.0
  3
_D
  1

  0
SOLID
  5
336
330
333
100
AcDbEntity
  8
0
  6
Continuous
 62
     7
370
     0
100
AcDbTrace
 10
3168.5024251445
 20
3451.1414693346
 30
0.0
 11
3178.6624251445
 21
3517.1814693346
 31
0.0
 12
3158.3424251445
 22
3517.1814693346
 32
0.0
 13
3158.3424251445
 23
3517.1814693346
 33
0.0
  0
SOLID
  5
337
330
333
100
AcDbEntity
  8
0
  6
Continuous
 62
     7
370
     0
100
AcDbTrace
 10
3168.5024251445
 20
4961.5889146327
 30
0.0
 11
3158.3424251445
 21
4895.5489146327
 31
0.0
 12
3178.6624251445
 22
4895.5489146327
 32
0.0
 13
3178.6624251445
 23
4895.5489146327
 33
0.0
  0
LINE
  5
338
330
333
100
AcDbEntity
  8
0
  6
Continuous
 62
     7
370
     0
100
AcDbLine
 10
2321.9420085897
 20
3451.1414693346
 30
0.0
 11
3188.5024251445
 21
3451.1414693346
 31
0.0
  0
LINE
  5
339
330
333
100
AcDbEntity
  8
0
  6
Continuous
 62
     7
370
     0
100
AcDbLine
 10
2204.6758242764
 20
4961.5889146327
 30
0.0
 11
3188.5024251445
 21
4961.5889146327
 31
0.0
  0
LINE
  5
33A
330
333
100
AcDbEntity
  8
0
  6
Continuous
 62
     7
370
     0
100
AcDbLine
 10
3168.5024251445
 20
3451.1414693346
 30
0.0
 11
3168.5024251445
 21
4961.5889146327
 31
0.0
  0
MTEXT
  5
33B
330
333
100
AcDbEntity
  8
0
  6
Continuous
 62
     7
370
     0
100
AcDbMText
 10
3078.2676868529
 20
4120.8247596247
 30
0.1
 40
70.0
 41
0.0
 46
0.0
 71
     1
 72
     1
  1
1510
  7
SLDTEXTSTYLE0
 11
6.123233995736766E-17
 21
1.0
 31
0.0
 73
     1
 44
1.0
  0
ENDBLK
  5
408
330
333
100
AcDbEntity
  8
0
100
AcDbBlockEnd
  0
BLOCK
  5
409
330
33E
100
AcDbEntity
  8
0
100
AcDbBlockBegin
  2
_D_1
 70
     0
 10
0.0
 20
0.0
 30
0.0
  3
_D_1
  1

  0
SOLID
  5
341
330
33E
100
AcDbEntity
  8
0
  6
Continuous
 62
     7
370
     0
100
AcDbTrace
 10
1467.7535207322
 20
3491.7006083034
 30
0.0
 11
1452.2041620074
 21
3426.7181134048
 31
0.0
 12
1472.4555181029
 22
3425.0492885811
 32
0.0
 13
1472.4555181029
 23
3425.0492885811
 33
0.0
  0
LINE
  5
342
330
33E
100
AcDbEntity
  8
0
  6
Continuous
 62
     7
370
     0
100
AcDbLine
 10
1467.7535207322
 20
3491.7006083034
 30
0.0
 11
1447.641310881
 21
3247.6369308093
 31
0.0
  0
LINE
  5
343
330
33E
100
AcDbEntity
  8
0
  6
Continuous
 62
     7
370
     0
100
AcDbLine
 10
1473.5024251445
 20
3561.46413816
 30
0.0
 11
1467.7535207322
 21
3491.7006083034
 31
0.0
  0
LINE
  5
344
330
33E
100
AcDbEntity
  8
0
  6
Continuous
 62
     7
370
     0
100
AcDbLine
 10
1447.641310881
 20
3247.6369308093
 30
0.0
 11
1155.1558773323
 21
3247.6369308093
 31
0.0
  0
MTEXT
  5
345
330
33E
100
AcDbEntity
  8
0
  6
Continuous
 62
     7
370
     0
100
AcDbMText
 10
1155.1558773323
 20
3337.8716725934
 30
0.1
 40
70.0
 41
0.0
 46
0.0
 71
     1
 72
     1
  1
%%c
  7
SLDTEXTSTYLE0
 73
     1
 44
1.0
  0
MTEXT
  5
346
330
33E
100
AcDbEntity
  8
0
  6
Continuous
 62
     7
370
     0
100
AcDbMText
 10
1260.7246252998
 20
3338.9411161266
 30
0.1
 40
70.0
 41
0.0
 46
0.0
 71
     1
 72
     1
  1
140
  7
SLDTEXTSTYLE0
 73
     1
 44
1.0
  0
ENDBLK
  5
40A
330
33E
100
AcDbEntity
  8
0
100
AcDbBlockEnd
  0
BLOCK
  5
40B
330
348
100
AcDbEntity
  8
0
100
AcDbBlockBegin
  2
_D_2
 70
     0
 10
0.0
 20
0.0
 30
0.0
  3
_D_2
  1

  0
SOLID
  5
34B
330
348
100
AcDbEntity
  8
0
  6
Continuous
 62
     7
370
     0
100
AcDbTrace
 10
1466.816852011
 20
3966.8446775881
 30
0.0
 11
1472.0430561131
 21
4033.4569436558
 31
0.0
 12
1451.7791979146
 22
4031.9474898106
 32
0.0
 13
1451.7791979146
 23
4031.9474898106
 33
0.0
  0
LINE
  5
34C
330
348
100
AcDbEntity
  8
0
  6
Continuous
 62
     7
370
     0
100
AcDbLine
 10
1466.816852011
 20
3966.8446775881
 30
0.0
 11
1447.641310881
 21
4224.2692073656
 31
0.0
  0
LINE
  5
34D
330
348
100
AcDbEntity
  8
0
  6
Continuous
 62
     7
370
     0
100
AcDbLine
 10
1473.5024251445
 20
3877.0933371419
 30
0.0
 11
1466.816852011
 21
3966.8446775881
 31
0.0
  0
LINE
  5
34E
330
348
100
AcDbEntity
  8
0
  6
Continuous
 62
     7
370
     0
100
AcDbLine
 10
1447.641310881
 20
4224.2692073656
 30
0.0
 11
1155.1558773323
 21
4224.2692073656
 31
0.0
  0
MTEXT
  5
34F
330
348
100
AcDbEntity
  8
0
  6
Continuous
 62
     7
370
     0
100
AcDbMText
 10
1155.1558773323
 20
4314.5039491496
 30
0.1
 40
70.0
 41
0.0
 46
0.0
 71
     1
 72
     1
  1
%%c
  7
SLDTEXTSTYLE0
 73
     1
 44
1.0
  0
MTEXT
  5
350
330
348
100
AcDbEntity
  8
0
  6
Continuous
 62
     7
370
     0
100
AcDbMText
 10
1260.7246252998
 20
4315.5733926828
 30
0.1
 40
70.0
 41
0.0
 46
0.0
 71
     1
 72
     1
  1
180
  7
SLDTEXTSTYLE0
 73
     1
 44
1.0
  0
ENDBLK
  5
40C
330
348
100
AcDbEntity
  8
0
100
AcDbBlockEnd
  0
BLOCK
  5
40D
330
3BD
100
AcDbEntity
  8
0
100
AcDbBlockBegin
  2
_D_3
 70
     0
 10
0.0
 20
0.0
 30
0.0
  3
_D_3
  1

  0
SOLID
  5
3C0
330
3BD
100
AcDbEntity
  8
0
  6
Continuous
 62
     7
370
     0
100
AcDbTrace
 10
2968.5024251445
 20
1429.6836276678
 30
0.0
 11
2902.4624251445
 21
1439.8436276678
 31
0.0
 12
2902.4624251445
 22
1419.5236276678
 32
0.0
 13
2902.4624251445
 23
1419.5236276678
 33
0.0
  0
SOLID
  5
3C1
330
3BD
100
AcDbEntity
  8
0
  6
Continuous
 62
     7
370
     0
100
AcDbTrace
 10
1383.5024251445
 20
1429.6836276678
 30
0.0
 11
1449.5424251445
 21
1419.5236276678
 31
0.0
 12
1449.5424251445
 22
1439.8436276678
 32
0.0
 13
1449.5424251445
 23
1439.8436276678
 33
0.0
  0
LINE
  5
3C2
330
3BD
100
AcDbEntity
  8
0
  6
Continuous
 62
     7
370
     0
100
AcDbLine
 10
2968.5024251445
 20
2271.4339393761
 30
0.0
 11
2968.5024251445
 21
1409.6836276678
 31
0.0
  0
LINE
  5
3C3
330
3BD
100
AcDbEntity
  8
0
  6
Continuous
 62
     7
370
     0
100
AcDbLine
 10
1383.5024251445
 20
2271.4339393761
 30
0.0
 11
1383.5024251445
 21
1409.6836276678
 31
0.0
  0
LINE
  5
3C4
330
3BD
100
AcDbEntity
  8
0
  6
Continuous
 62
     7
370
     0
100
AcDbLine
 10
2968.5024251445
 20
1429.6836276678
 30
0.0
 11
1383.5024251445
 21
1429.6836276678
 31
0.0
  0
MTEXT
  5
3C5
330
3BD
100
AcDbEntity
  8
0
  6
Continuous
 62
     7
370
     0
100
AcDbMText
 10
2019.8325629625
 20
1519.9183659593
 30
0.1
 40
70.0
 41
0.0
 46
0.0
 71
     1
 72
     1
  1
1585
  7
SLDTEXTSTYLE0
 73
     1
 44
1.0
  0
ENDBLK
  5
40E
330
3BD
100
AcDbEntity
  8
0
100
AcDbBlockEnd
  0
ENDSEC
  0
SECTION
  2
ENTITIES
  0
LINE
  5
8E
330
1F
100
AcDbEntity
  8
0
  6
Continuous
 62
     7
370
    15
100
AcDbLine
 10
2176.6274251445
 20
4961.5889146327
 30
0.0
 11
2176.6274251445
 21
5190.3868746301
 31
0.0
  0
LINE
  5
8F
330
1F
100
AcDbEntity
  8
0
  6
Continuous
 62
     7
370
    15
100
AcDbLine
 10
2175.3774251445
 20
5190.3868746301
 30
0.0
 11
2175.3774251445
 21
4961.5889146327
 31
0.0
  0
LINE
  5
90
330
1F
100
AcDbEntity
  8
0
  6
Continuous
 62
     7
370
    15
100
AcDbLine
 10
2167.0276619304
 20
5655.093547849
 30
0.0
 11
2167.0276619304
 21
4955.1328886055
 31
0.0
  0
LINE
  5
91
330
1F
100
AcDbEntity
  8
0
  6
Continuous
 62
     7
370
    15
100
AcDbLine
 10
2173.0276619304
 20
4958.0084301786
 30
0.0
 11
2173.0276619304
 21
5653.1163344704
 31
0.0
  0
LINE
  5
40F
330
1F
100
AcDbEntity
  8
0
  6
Continuous
 62
     7
370
    15
100
AcDbLine
 10
2173.0276619304
 20
5653.7694823629
 30
0.0
 11
2173.0276619304
 21
5655.093547849
 31
0.0
  0
LINE
  5
410
330
1F
100
AcDbEntity
  8
0
  6
Continuous
 62
     7
370
    15
100
AcDbLine
 10
2223.9024251445
 20
3717.117509423
 30
0.0
 11
2218.0024251445
 21
3717.117509423
 31
0.0
  0
LINE
  5
94
330
1F
100
AcDbEntity
  8
0
  6
Continuous
 62
     7
370
    15
100
AcDbLine
 10
2807.9024251445
 20
3717.117509423
 30
0.0
 11
2228.0743054582
 21
3717.117509423
 31
0.0
  0
LINE
  5
95
330
1F
100
AcDbEntity
  8
0
  6
Continuous
 62
     7
370
    15
100
AcDbLine
 10
2826.5234051987
 20
3717.117509423
 30
0.0
 11
2812.0743054582
 21
3717.117509423
 31
0.0
  0
LINE
  5
96
330
1F
100
AcDbEntity
  8
0
  6
Continuous
 62
     7
370
    15
100
AcDbLine
 10
2812.0743054582
 20
3701.117509423
 30
0.0
 11
2826.5234051987
 21
3701.117509423
 31
0.0
  0
LINE
  5
411
330
1F
100
AcDbEntity
  8
0
  6
Continuous
 62
     7
370
    15
100
AcDbLine
 10
2228.0743054582
 20
3701.117509423
 30
0.0
 11
2807.9024251445
 21
3701.117509423
 31
0.0
  0
LINE
  5
412
330
1F
100
AcDbEntity
  8
0
  6
Continuous
 62
     7
370
    15
100
AcDbLine
 10
2218.0024251445
 20
3701.117509423
 30
0.0
 11
2223.9024251445
 21
3701.117509423
 31
0.0
  0
LINE
  5
413
330
1F
100
AcDbEntity
  8
0
  6
Continuous
 62
     7
370
    15
100
AcDbLine
 10
2128.1024251445
 20
3701.117509423
 30
0.0
 11
2134.0024251445
 21
3701.117509423
 31
0.0
  0
LINE
  5
414
330
1F
100
AcDbEntity
  8
0
  6
Continuous
 62
     7
370
    15
100
AcDbLine
 10
1544.1024251445
 20
3701.117509423
 30
0.0
 11
2123.9305448308
 21
3701.117509423
 31
0.0
  0
LINE
  5
415
330
1F
100
AcDbEntity
  8
0
  6
Continuous
 62
     7
370
    15
100
AcDbLine
 10
1525.4814450903
 20
3701.117509423
 30
0.0
 11
1539.9305448308
 21
3701.117509423
 31
0.0
  0
LINE
  5
416
330
1F
100
AcDbEntity
  8
0
  6
Continuous
 62
     7
370
    15
100
AcDbLine
 10
1539.9305448308
 20
3717.117509423
 30
0.0
 11
1525.4814450903
 21
3717.117509423
 31
0.0
  0
LINE
  5
417
330
1F
100
AcDbEntity
  8
0
  6
Continuous
 62
     7
370
    15
100
AcDbLine
 10
2123.9305448308
 20
3717.117509423
 30
0.0
 11
1544.1024251445
 21
3717.117509423
 31
0.0
  0
LINE
  5
418
330
1F
100
AcDbEntity
  8
0
  6
Continuous
 62
     7
370
    15
100
AcDbLine
 10
2134.0024251445
 20
3717.117509423
 30
0.0
 11
2128.1024251445
 21
3717.117509423
 31
0.0
  0
LINE
  5
419
330
1F
100
AcDbEntity
  8
0
  6
Continuous
 62
     7
370
    15
100
AcDbLine
 10
2158.5024251445
 20
4925.117509423
 30
0.0
 11
2159.5024251445
 21
4924.117509423
 31
0.0
  0
LINE
  5
41A
330
1F
100
AcDbEntity
  8
0
  6
Continuous
 62
     7
370
    15
100
AcDbLine
 10
2192.5024251445
 20
4924.117509423
 30
0.0
 11
2193.5024251445
 21
4925.117509423
 31
0.0
  0
LINE
  5
41B
330
1F
100
AcDbEntity
  8
0
  6
Continuous
 62
     7
370
    15
100
AcDbLine
 10
2193.5024251445
 20
4925.117509423
 30
0.0
 11
2193.5024251445
 21
4934.117509423
 31
0.0
  0
LINE
  5
41C
330
1F
100
AcDbEntity
  8
0
  6
Continuous
 62
     7
370
    15
100
AcDbLine
 10
2158.5024251445
 20
4934.117509423
 30
0.0
 11
2158.5024251445
 21
4925.117509423
 31
0.0
  0
LINE
  5
41D
330
1F
100
AcDbEntity
  8
0
  6
Continuous
 62
     7
370
    15
100
AcDbLine
 10
2193.5024251445
 20
4814.5482615832
 30
0.0
 11
2193.5024251445
 21
4924.117509423
 31
0.0
  0
LINE
  5
41E
330
1F
100
AcDbEntity
  8
0
  6
Continuous
 62
     7
370
    15
100
AcDbLine
 10
2158.5024251445
 20
4924.117509423
 30
0.0
 11
2158.5024251445
 21
4814.5482615832
 31
0.0
  0
LINE
  5
41F
330
1F
100
AcDbEntity
  8
0
  6
Continuous
 62
     7
370
    15
100
AcDbLine
 10
2158.5024251445
 20
4944.117509423
 30
0.0
 11
2158.5024251445
 21
4934.117509423
 31
0.0
  0
LINE
  5
420
330
1F
100
AcDbEntity
  8
0
  6
Continuous
 62
     7
370
    15
100
AcDbLine
 10
2193.5024251445
 20
4934.117509423
 30
0.0
 11
2193.5024251445
 21
4944.117509423
 31
0.0
  0
ARC
  5
421
330
1F
100
AcDbEntity
  8
0
  6
Continuous
 62
     7
370
    15
100
AcDbCircle
 10
2176.0024251445
 20
4944.117509423
 30
0.0
 40
17.50000000000063
100
AcDbArc
 50
120.8534276471
 51
180.0
  0
ARC
  5
422
330
1F
100
AcDbEntity
  8
0
  6
Continuous
 62
     7
370
    15
100
AcDbCircle
 10
2176.0024251445
 20
4944.117509423
 30
0.0
 40
17.50000000000083
100
AcDbArc
 50
93.2758289598
 51
99.787032359
  0
ARC
  5
423
330
1F
100
AcDbEntity
  8
0
  6
Continuous
 62
     7
370
    15
100
AcDbCircle
 10
2176.0024251445
 20
4944.117509423
 30
0.0
 40
17.5000000000008
100
AcDbArc
 50
0.0
 51
86.7241710402
  0
LINE
  5
424
330
1F
100
AcDbEntity
  8
0
  6
Continuous
 62
     7
370
    15
100
AcDbLine
 10
2128.2524251445
 20
4591.117509423
 30
0.0
 11
2134.0024251445
 21
4591.117509423
 31
0.0
  0
LINE
  5
425
330
1F
100
AcDbEntity
  8
0
  6
Continuous
 62
     7
370
    15
100
AcDbLine
 10
1869.2524251445
 20
4591.117509423
 30
0.0
 11
2123.7524251445
 21
4591.117509423
 31
0.0
  0
LINE
  5
426
330
1F
100
AcDbEntity
  8
0
  6
Continuous
 62
     7
370
    15
100
AcDbLine
 10
1850.4814450903
 20
4591.117509423
 30
0.0
 11
1864.7524251445
 21
4591.117509423
 31
0.0
  0
LINE
  5
427
330
1F
100
AcDbEntity
  8
0
  6
Continuous
 62
     7
370
    15
100
AcDbLine
 10
1864.7524251445
 20
4607.117509423
 30
0.0
 11
1850.4814450903
 21
4607.117509423
 31
0.0
  0
LINE
  5
428
330
1F
100
AcDbEntity
  8
0
  6
Continuous
 62
     7
370
    15
100
AcDbLine
 10
2123.7524251445
 20
4607.117509423
 30
0.0
 11
1869.2524251445
 21
4607.117509423
 31
0.0
  0
LINE
  5
429
330
1F
100
AcDbEntity
  8
0
  6
Continuous
 62
     7
370
    15
100
AcDbLine
 10
2134.0024251445
 20
4607.117509423
 30
0.0
 11
2128.2524251445
 21
4607.117509423
 31
0.0
  0
LINE
  5
42A
330
1F
100
AcDbEntity
  8
0
  6
Continuous
 62
     7
370
    15
100
AcDbLine
 10
2223.9024251445
 20
4607.117509423
 30
0.0
 11
2218.0024251445
 21
4607.117509423
 31
0.0
  0
LINE
  5
42B
330
1F
100
AcDbEntity
  8
0
  6
Continuous
 62
     7
370
    15
100
AcDbLine
 10
2482.7524251445
 20
4607.117509423
 30
0.0
 11
2228.0743054582
 21
4607.117509423
 31
0.0
  0
LINE
  5
42C
330
1F
100
AcDbEntity
  8
0
  6
Continuous
 62
     7
370
    15
100
AcDbLine
 10
2501.5234051987
 20
4607.117509423
 30
0.0
 11
2487.2524251445
 21
4607.117509423
 31
0.0
  0
LINE
  5
42D
330
1F
100
AcDbEntity
  8
0
  6
Continuous
 62
     7
370
    15
100
AcDbLine
 10
2487.0958835642
 20
4591.117509423
 30
0.0
 11
2501.5234051987
 21
4591.117509423
 31
0.0
  0
LINE
  5
42E
330
1F
100
AcDbEntity
  8
0
  6
Continuous
 62
     7
370
    15
100
AcDbLine
 10
2228.0743054582
 20
4591.117509423
 30
0.0
 11
2482.9024251445
 21
4591.117509423
 31
0.0
  0
LINE
  5
42F
330
1F
100
AcDbEntity
  8
0
  6
Continuous
 62
     7
370
    15
100
AcDbLine
 10
2218.0024251445
 20
4591.117509423
 30
0.0
 11
2223.9024251445
 21
4591.117509423
 31
0.0
  0
ARC
  5
430
330
1F
100
AcDbEntity
  8
0
  6
Continuous
 62
     7
370
    15
100
AcDbCircle
 10
2176.3974751307
 20
3856.770861063
 30
0.0
 40
69.99999999999986
100
AcDbArc
 50
286.1921209696
 51
253.5348570035
  0
ARC
  5
431
330
1F
100
AcDbEntity
  8
0
  6
Continuous
 62
     7
370
    15
100
AcDbCircle
 10
2175.6073751583
 20
3856.770861063
 30
0.0
 40
70.00000000000034
100
AcDbArc
 50
104.1438038696
 51
253.529377414
  0
ARC
  5
432
330
1F
100
AcDbEntity
  8
0
  6
Continuous
 62
     7
370
    15
100
AcDbCircle
 10
2176.0024251445
 20
4746.7710530246
 30
0.0
 40
69.99999999999949
100
AcDbArc
 50
286.3286319831
 51
253.6713680169
  0
ARC
  5
433
330
1F
100
AcDbEntity
  8
0
  6
Continuous
 62
     7
370
    15
100
AcDbCircle
 10
2878.5024251445
 20
3561.46413816
 30
0.0
 40
70.00000000000004
100
AcDbArc
 50
106.4062961358
 51
73.5937038642
  0
ARC
  5
434
330
1F
100
AcDbEntity
  8
0
  6
Continuous
 62
     7
370
    15
100
AcDbCircle
 10
1473.5024251445
 20
3561.46413816
 30
0.0
 40
70.00000000000011
100
AcDbArc
 50
106.4062961424
 51
73.5937038576
  0
ARC
  5
BB
330
1F
100
AcDbEntity
  8
0
  6
Continuous
 62
     7
370
    15
100
AcDbCircle
 10
1803.0035980686
 20
3981.4639658214
 30
0.0
 40
70.0
100
AcDbArc
 50
106.3286319831
 51
73.6713680169
  0
ARC
  5
BC
330
1F
100
AcDbEntity
  8
0
  6
Continuous
 62
     7
370
    15
100
AcDbCircle
 10
1798.5024251445
 20
4451.4636356371
 30
0.0
 40
70.0000000000003
100
AcDbArc
 50
106.3286319831
 51
254.4356739232
  0
ARC
  5
BD
330
1F
100
AcDbEntity
  8
0
  6
Continuous
 62
     7
370
    15
100
AcDbCircle
 10
1798.5024251445
 20
4451.4636356371
 30
0.0
 40
70.00000000000023
100
AcDbArc
 50
288.9046981332
 51
73.6713680169
  0
ARC
  5
BE
330
1F
100
AcDbEntity
  8
0
  6
Continuous
 62
     7
370
    15
100
AcDbCircle
 10
2553.5024251445
 20
4451.4636356371
 30
0.0
 40
70.00000000000023
100
AcDbArc
 50
106.3286319831
 51
73.6713680169
  0
ARC
  5
BF
330
1F
100
AcDbEntity
  8
0
  6
Continuous
 62
     7
370
    15
100
AcDbCircle
 10
2548.8264666778
 20
4276.7710530246
 30
0.0
 40
70.00000000000053
100
AcDbArc
 50
286.3286319831
 51
253.6713680169
  0
LINE
  5
C0
330
1F
100
AcDbEntity
  8
0
  6
Continuous
 62
     7
370
    15
100
AcDbLine
 10
1451.7524251445
 20
3629.1500455811
 30
0.0
 11
1451.7524251445
 21
3628.6403962709
 31
0.0
  0
LINE
  5
C1
330
1F
100
AcDbEntity
  8
0
  6
Continuous
 62
     7
370
    15
100
AcDbLine
 10
1495.2524251445
 20
3628.6403962709
 30
0.0
 11
1495.2524251445
 21
3629.1500455811
 31
0.0
  0
LINE
  5
C2
330
1F
100
AcDbEntity
  8
0
  6
Continuous
 62
     7
370
    15
100
AcDbLine
 10
2197.9861696729
 20
3789.0426882051
 30
0.0
 11
2197.9873609551
 21
3789.542686786
 31
0.0
  0
LINE
  5
C3
330
1F
100
AcDbEntity
  8
0
  6
Continuous
 62
     7
370
    15
100
AcDbLine
 10
2154.4874844216
 20
3789.6463283372
 30
0.0
 11
2154.4862931394
 21
3789.1463297563
 31
0.0
  0
LINE
  5
C4
330
1F
100
AcDbEntity
  8
0
  6
Continuous
 62
     7
370
    15
100
AcDbLine
 10
2527.0764666778
 20
4049.1405099907
 30
0.0
 11
2527.0764666778
 21
4048.6405099907
 31
0.0
  0
LINE
  5
C5
330
1F
100
AcDbEntity
  8
0
  6
Continuous
 62
     7
370
    15
100
AcDbLine
 10
2570.5764666778
 20
4048.6405099907
 30
0.0
 11
2570.5764666778
 21
4049.1405099907
 31
0.0
  0
LINE
  5
C6
330
1F
100
AcDbEntity
  8
0
  6
Continuous
 62
     7
370
    15
100
AcDbLine
 10
1495.2524251445
 20
3789.1105239093
 30
0.0
 11
1495.2524251445
 21
3789.5937097438
 31
0.0
  0
LINE
  5
C7
330
1F
100
AcDbEntity
  8
0
  6
Continuous
 62
     7
370
    15
100
AcDbLine
 10
1451.7524251445
 20
3789.5937097438
 30
0.0
 11
1451.7524251445
 21
3789.1105239093
 31
0.0
  0
LINE
  5
C8
330
1F
100
AcDbEntity
  8
0
  6
Continuous
 62
     7
370
    15
100
AcDbLine
 10
1824.7535980686
 20
4209.0945088553
 30
0.0
 11
1824.7535980686
 21
4209.5945088553
 31
0.0
  0
LINE
  5
C9
330
1F
100
AcDbEntity
  8
0
  6
Continuous
 62
     7
370
    15
100
AcDbLine
 10
1781.2535980686
 20
4209.5945088553
 30
0.0
 11
1781.2535980686
 21
4209.0945088553
 31
0.0
  0
LINE
  5
CA
330
1F
100
AcDbEntity
  8
0
  6
Continuous
 62
     7
370
    15
100
AcDbLine
 10
2154.1051924367
 20
3629.1927848909
 30
0.0
 11
2154.1040011545
 21
3628.69278631
 31
0.0
  0
LINE
  5
CB
330
1F
100
AcDbEntity
  8
0
  6
Continuous
 62
     7
370
    15
100
AcDbLine
 10
2197.603877688
 20
3628.5891447588
 30
0.0
 11
2197.6050689702
 21
3629.0891433397
 31
0.0
  0
LINE
  5
CC
330
1F
100
AcDbEntity
  8
0
  6
Continuous
 62
     7
370
    15
100
AcDbLine
 10
2570.5764666778
 20
4209.0945088553
 30
0.0
 11
2570.5764666778
 21
4209.5945088553
 31
0.0
  0
LINE
  5
CD
330
1F
100
AcDbEntity
  8
0
  6
Continuous
 62
     7
370
    15
100
AcDbLine
 10
2527.0764666778
 20
4209.5945088553
 30
0.0
 11
2527.0764666778
 21
4209.0945088553
 31
0.0
  0
LINE
  5
CE
330
1F
100
AcDbEntity
  8
0
  6
Continuous
 62
     7
370
    15
100
AcDbLine
 10
2197.5176101342
 20
3789.5438060007
 30
0.0
 11
2197.5173658674
 21
3789.6463283372
 31
0.0
  0
LINE
  5
CF
330
1F
100
AcDbEntity
  8
0
  6
Continuous
 62
     7
370
    15
100
AcDbLine
 10
2154.0174893339
 20
3789.542686786
 30
0.0
 11
2154.0184310269
 21
3789.1474444711
 31
0.0
  0
LINE
  5
D0
330
1F
100
AcDbEntity
  8
0
  6
Continuous
 62
     7
370
    15
100
AcDbLine
 10
2154.2524251445
 20
4519.1405099907
 30
0.0
 11
2154.2524251445
 21
4518.6405099907
 31
0.0
  0
LINE
  5
D1
330
1F
100
AcDbEntity
  8
0
  6
Continuous
 62
     7
370
    15
100
AcDbLine
 10
2197.7524251445
 20
4518.6405099907
 30
0.0
 11
2197.7524251445
 21
4519.1405099907
 31
0.0
  0
LINE
  5
D2
330
1F
100
AcDbEntity
  8
0
  6
Continuous
 62
     7
370
    15
100
AcDbLine
 10
2900.2524251445
 20
3789.0840604337
 30
0.0
 11
2900.2524251445
 21
3789.5937097438
 31
0.0
  0
LINE
  5
D3
330
1F
100
AcDbEntity
  8
0
  6
Continuous
 62
     7
370
    15
100
AcDbLine
 10
2856.7524251445
 20
3789.5937097438
 30
0.0
 11
2856.7524251445
 21
3789.0840604337
 31
0.0
  0
LINE
  5
D4
330
1F
100
AcDbEntity
  8
0
  6
Continuous
 62
     7
370
    15
100
AcDbLine
 10
1820.2524251445
 20
4679.094178671
 30
0.0
 11
1820.2524251445
 21
4679.594178671
 31
0.0
  0
LINE
  5
D5
330
1F
100
AcDbEntity
  8
0
  6
Continuous
 62
     7
370
    15
100
AcDbLine
 10
1776.7524251445
 20
4679.594178671
 30
0.0
 11
1776.7524251445
 21
4679.094178671
 31
0.0
  0
LINE
  5
D6
330
1F
100
AcDbEntity
  8
0
  6
Continuous
 62
     7
370
    15
100
AcDbLine
 10
1781.2535980686
 20
4049.1405099907
 30
0.0
 11
1781.2535980686
 21
4048.6405099907
 31
0.0
  0
LINE
  5
D7
330
1F
100
AcDbEntity
  8
0
  6
Continuous
 62
     7
370
    15
100
AcDbLine
 10
1824.7535980686
 20
4048.6405099907
 30
0.0
 11
1824.7535980686
 21
4049.1405099907
 31
0.0
  0
LINE
  5
D8
330
1F
100
AcDbEntity
  8
0
  6
Continuous
 62
     7
370
    15
100
AcDbLine
 10
2197.7524251445
 20
4679.0945088553
 30
0.0
 11
2197.7524251445
 21
4679.5945088553
 31
0.0
  0
LINE
  5
D9
330
1F
100
AcDbEntity
  8
0
  6
Continuous
 62
     7
370
    15
100
AcDbLine
 10
2154.2524251445
 20
4679.5945088553
 30
0.0
 11
2154.2524251445
 21
4679.0945088553
 31
0.0
  0
LINE
  5
DA
330
1F
100
AcDbEntity
  8
0
  6
Continuous
 62
     7
370
    15
100
AcDbLine
 10
2570.7512522204
 20
4209.0945088553
 30
0.0
 11
2570.7512522204
 21
4209.5945088553
 31
0.0
  0
LINE
  5
DB
330
1F
100
AcDbEntity
  8
0
  6
Continuous
 62
     7
370
    15
100
AcDbLine
 10
1776.7524251445
 20
4519.1401798064
 30
0.0
 11
1776.7524251445
 21
4518.6401798064
 31
0.0
  0
LINE
  5
DC
330
1F
100
AcDbEntity
  8
0
  6
Continuous
 62
     7
370
    15
100
AcDbLine
 10
1820.2524251445
 20
4518.6401798064
 30
0.0
 11
1820.2524251445
 21
4519.1401798064
 31
0.0
  0
LINE
  5
DD
330
1F
100
AcDbEntity
  8
0
  6
Continuous
 62
     7
370
    15
100
AcDbLine
 10
2575.2524251445
 20
4679.094178671
 30
0.0
 11
2575.2524251445
 21
4679.594178671
 31
0.0
  0
LINE
  5
DE
330
1F
100
AcDbEntity
  8
0
  6
Continuous
 62
     7
370
    15
100
AcDbLine
 10
2531.7524251445
 20
4679.594178671
 30
0.0
 11
2531.7524251445
 21
4679.094178671
 31
0.0
  0
LINE
  5
DF
330
1F
100
AcDbEntity
  8
0
  6
Continuous
 62
     7
370
    15
100
AcDbLine
 10
2856.7524251445
 20
3629.1235821054
 30
0.0
 11
2856.7524251445
 21
3628.6403962709
 31
0.0
  0
LINE
  5
E0
330
1F
100
AcDbEntity
  8
0
  6
Continuous
 62
     7
370
    15
100
AcDbLine
 10
2900.2524251445
 20
3628.6403962709
 30
0.0
 11
2900.2524251445
 21
3629.1235821054
 31
0.0
  0
LINE
  5
E1
330
1F
100
AcDbEntity
  8
0
  6
Continuous
 62
     7
370
    15
100
AcDbLine
 10
1824.9283836112
 20
4209.0945088553
 30
0.0
 11
1824.9283836112
 21
4209.5945088553
 31
0.0
  0
LINE
  5
E2
330
1F
100
AcDbEntity
  8
0
  6
Continuous
 62
     7
370
    15
100
AcDbLine
 10
2154.4007273521
 20
3628.6920793388
 30
0.0
 11
2154.4009517586
 21
3628.5978926229
 31
0.0
  0
LINE
  5
E3
330
1F
100
AcDbEntity
  8
0
  6
Continuous
 62
     7
370
    15
100
AcDbLine
 10
2197.9008491345
 20
3628.69278631
 30
0.0
 11
2197.8999064594
 21
3629.0884408684
 31
0.0
  0
LINE
  5
E4
330
1F
100
AcDbEntity
  8
0
  6
Continuous
 62
     7
370
    15
100
AcDbLine
 10
2570.7512522204
 20
4048.6405099907
 30
0.0
 11
2570.7512522204
 21
4049.1405099907
 31
0.0
  0
LINE
  5
E5
330
1F
100
AcDbEntity
  8
0
  6
Continuous
 62
     7
370
    15
100
AcDbLine
 10
2531.7524251445
 20
4519.1401798064
 30
0.0
 11
2531.7524251445
 21
4518.6401798064
 31
0.0
  0
LINE
  5
E6
330
1F
100
AcDbEntity
  8
0
  6
Continuous
 62
     7
370
    15
100
AcDbLine
 10
2575.2524251445
 20
4518.6401798064
 30
0.0
 11
2575.2524251445
 21
4519.1401798064
 31
0.0
  0
LINE
  5
E7
330
1F
100
AcDbEntity
  8
0
  6
Continuous
 62
     7
370
    15
100
AcDbLine
 10
1824.9283836112
 20
4048.6405099907
 30
0.0
 11
1824.9283836112
 21
4049.1405099907
 31
0.0
  0
LINE
  5
E8
330
1F
100
AcDbEntity
  8
0
  6
Continuous
 62
     7
370
    15
100
AcDbLine
 10
1451.0024251445
 20
3789.093711873
 30
0.0
 11
1451.0024251445
 21
3775.0937714893
 31
0.0
  0
LINE
  5
E9
330
1F
100
AcDbEntity
  8
0
  6
Continuous
 62
     7
370
    15
100
AcDbLine
 10
1496.0024251445
 20
3775.0937714893
 30
0.0
 11
1496.0024251445
 21
3789.093711873
 31
0.0
  0
LINE
  5
EA
330
1F
100
AcDbEntity
  8
0
  6
Continuous
 62
     7
370
    15
100
AcDbLine
 10
1825.6783836112
 20
4195.0945088553
 30
0.0
 11
1825.6783836112
 21
4209.0945088553
 31
0.0
  0
LINE
  5
EB
330
1F
100
AcDbEntity
  8
0
  6
Continuous
 62
     7
370
    15
100
AcDbLine
 10
1825.5035980686
 20
4049.1405099907
 30
0.0
 11
1825.5035980686
 21
4063.1405099907
 31
0.0
  0
LINE
  5
EC
330
1F
100
AcDbEntity
  8
0
  6
Continuous
 62
     7
370
    15
100
AcDbLine
 10
1780.5035980686
 20
4063.1405099907
 30
0.0
 11
1780.5035980686
 21
4049.1405099907
 31
0.0
  0
LINE
  5
ED
330
1F
100
AcDbEntity
  8
0
  6
Continuous
 62
     7
370
    15
100
AcDbLine
 10
2531.0024251445
 20
4679.094178671
 30
0.0
 11
2531.0024251445
 21
4665.094178671
 31
0.0
  0
LINE
  5
EE
330
1F
100
AcDbEntity
  8
0
  6
Continuous
 62
     7
370
    15
100
AcDbLine
 10
2576.0024251445
 20
4665.094178671
 30
0.0
 11
2576.0024251445
 21
4679.094178671
 31
0.0
  0
LINE
  5
EF
330
1F
100
AcDbEntity
  8
0
  6
Continuous
 62
     7
370
    15
100
AcDbLine
 10
2576.0024251445
 20
4519.1401798064
 30
0.0
 11
2576.0024251445
 21
4533.1401798064
 31
0.0
  0
LINE
  5
F0
330
1F
100
AcDbEntity
  8
0
  6
Continuous
 62
     7
370
    15
100
AcDbLine
 10
2531.0024251445
 20
4533.1401798064
 30
0.0
 11
2531.0024251445
 21
4519.1401798064
 31
0.0
  0
LINE
  5
F1
330
1F
100
AcDbEntity
  8
0
  6
Continuous
 62
     7
370
    15
100
AcDbLine
 10
1825.6783836112
 20
4049.1405099907
 30
0.0
 11
1825.6783836112
 21
4063.1405099907
 31
0.0
  0
LINE
  5
F2
330
1F
100
AcDbEntity
  8
0
  6
Continuous
 62
     7
370
    15
100
AcDbLine
 10
2856.0024251445
 20
3789.093711873
 30
0.0
 11
2856.0024251445
 21
3775.0937714893
 31
0.0
  0
LINE
  5
F3
330
1F
100
AcDbEntity
  8
0
  6
Continuous
 62
     7
370
    15
100
AcDbLine
 10
2901.0024251445
 20
3775.0937714893
 30
0.0
 11
2901.0024251445
 21
3789.093711873
 31
0.0
  0
LINE
  5
F4
330
1F
100
AcDbEntity
  8
0
  6
Continuous
 62
     7
370
    15
100
AcDbLine
 10
2571.5012522204
 20
4195.0945088553
 30
0.0
 11
2571.5012522204
 21
4209.0945088553
 31
0.0
  0
LINE
  5
F5
330
1F
100
AcDbEntity
  8
0
  6
Continuous
 62
     7
370
    15
100
AcDbLine
 10
2571.5012522204
 20
4049.1405099907
 30
0.0
 11
2571.5012522204
 21
4063.1405099907
 31
0.0
  0
LINE
  5
F6
330
1F
100
AcDbEntity
  8
0
  6
Continuous
 62
     7
370
    15
100
AcDbLine
 10
2198.3550668414
 20
3629.0873564164
 30
0.0
 11
2198.388422743
 21
3643.08731668
 31
0.0
  0
LINE
  5
F7
330
1F
100
AcDbEntity
  8
0
  6
Continuous
 62
     7
370
    15
100
AcDbLine
 10
2153.3885504669
 20
3643.1945320778
 30
0.0
 11
2153.3551945654
 21
3629.1945718142
 31
0.0
  0
LINE
  5
F8
330
1F
100
AcDbEntity
  8
0
  6
Continuous
 62
     7
370
    15
100
AcDbLine
 10
2153.2686827449
 20
3789.0409012818
 30
0.0
 11
2153.3020386464
 21
3775.0409410182
 31
0.0
  0
LINE
  5
F9
330
1F
100
AcDbEntity
  8
0
  6
Continuous
 62
     7
370
    15
100
AcDbLine
 10
2198.2688078162
 20
3789.0420147996
 30
0.0
 11
2198.2685550209
 21
3789.1481166796
 31
0.0
  0
LINE
  5
FA
330
1F
100
AcDbEntity
  8
0
  6
Continuous
 62
     7
370
    15
100
AcDbLine
 10
2198.6496557236
 20
3629.1945718142
 30
0.0
 11
2198.6162998221
 21
3643.1945320778
 31
0.0
  0
LINE
  5
FB
330
1F
100
AcDbEntity
  8
0
  6
Continuous
 62
     7
370
    15
100
AcDbLine
 10
2153.6495296701
 20
3629.1938705399
 30
0.0
 11
2153.6497834476
 21
3629.0873564164
 31
0.0
  0
LINE
  5
FC
330
1F
100
AcDbEntity
  8
0
  6
Continuous
 62
     7
370
    15
100
AcDbLine
 10
1776.0024251445
 20
4679.094178671
 30
0.0
 11
1776.0024251445
 21
4665.094178671
 31
0.0
  0
LINE
  5
FD
330
1F
100
AcDbEntity
  8
0
  6
Continuous
 62
     7
370
    15
100
AcDbLine
 10
1821.0024251445
 20
4665.094178671
 30
0.0
 11
1821.0024251445
 21
4679.094178671
 31
0.0
  0
LINE
  5
FE
330
1F
100
AcDbEntity
  8
0
  6
Continuous
 62
     7
370
    15
100
AcDbLine
 10
1821.0024251445
 20
4519.1401798064
 30
0.0
 11
1821.0024251445
 21
4533.1401798064
 31
0.0
  0
LINE
  5
FF
330
1F
100
AcDbEntity
  8
0
  6
Continuous
 62
     7
370
    15
100
AcDbLine
 10
1776.0024251445
 20
4533.1401798064
 30
0.0
 11
1776.0024251445
 21
4519.1401798064
 31
0.0
  0
LINE
  5
100
330
1F
100
AcDbEntity
  8
0
  6
Continuous
 62
     7
370
    15
100
AcDbLine
 10
2153.7362952681
 20
3789.1481166796
 30
0.0
 11
2153.7029393666
 21
3775.148156416
 31
0.0
  0
LINE
  5
101
330
1F
100
AcDbEntity
  8
0
  6
Continuous
 62
     7
370
    15
100
AcDbLine
 10
2198.7028116426
 20
3775.0409410182
 30
0.0
 11
2198.7361675441
 21
3789.0409012818
 31
0.0
  0
LINE
  5
102
330
1F
100
AcDbEntity
  8
0
  6
Continuous
 62
     7
370
    15
100
AcDbLine
 10
2198.5024251445
 20
4519.1405099907
 30
0.0
 11
2198.5024251445
 21
4533.1405099907
 31
0.0
  0
LINE
  5
103
330
1F
100
AcDbEntity
  8
0
  6
Continuous
 62
     7
370
    15
100
AcDbLine
 10
2153.5024251445
 20
4533.1405099907
 30
0.0
 11
2153.5024251445
 21
4519.1405099907
 31
0.0
  0
LINE
  5
104
330
1F
100
AcDbEntity
  8
0
  6
Continuous
 62
     7
370
    15
100
AcDbLine
 10
2901.0024251445
 20
3629.1403941417
 30
0.0
 11
2901.0024251445
 21
3643.1403345254
 31
0.0
  0
LINE
  5
105
330
1F
100
AcDbEntity
  8
0
  6
Continuous
 62
     7
370
    15
100
AcDbLine
 10
2856.0024251445
 20
3643.1403345254
 30
0.0
 11
2856.0024251445
 21
3629.1403941417
 31
0.0
  0
LINE
  5
106
330
1F
100
AcDbEntity
  8
0
  6
Continuous
 62
     7
370
    15
100
AcDbLine
 10
2153.5024251445
 20
4679.0945088553
 30
0.0
 11
2153.5024251445
 21
4665.0945088553
 31
0.0
  0
LINE
  5
107
330
1F
100
AcDbEntity
  8
0
  6
Continuous
 62
     7
370
    15
100
AcDbLine
 10
2198.5024251445
 20
4665.0945088553
 30
0.0
 11
2198.5024251445
 21
4679.0945088553
 31
0.0
  0
LINE
  5
108
330
1F
100
AcDbEntity
  8
0
  6
Continuous
 62
     7
370
    15
100
AcDbLine
 10
1780.5035980686
 20
4209.0945088553
 30
0.0
 11
1780.5035980686
 21
4195.0945088553
 31
0.0
  0
LINE
  5
109
330
1F
100
AcDbEntity
  8
0
  6
Continuous
 62
     7
370
    15
100
AcDbLine
 10
1825.5035980686
 20
4195.0945088553
 30
0.0
 11
1825.5035980686
 21
4209.0945088553
 31
0.0
  0
LINE
  5
10A
330
1F
100
AcDbEntity
  8
0
  6
Continuous
 62
     7
370
    15
100
AcDbLine
 10
2571.3264666778
 20
4049.1405099907
 30
0.0
 11
2571.3264666778
 21
4063.1405099907
 31
0.0
  0
LINE
  5
10B
330
1F
100
AcDbEntity
  8
0
  6
Continuous
 62
     7
370
    15
100
AcDbLine
 10
2526.3264666778
 20
4063.1405099907
 30
0.0
 11
2526.3264666778
 21
4049.1405099907
 31
0.0
  0
LINE
  5
10C
330
1F
100
AcDbEntity
  8
0
  6
Continuous
 62
     7
370
    15
100
AcDbLine
 10
2526.3264666778
 20
4209.0945088553
 30
0.0
 11
2526.3264666778
 21
4195.0945088553
 31
0.0
  0
LINE
  5
10D
330
1F
100
AcDbEntity
  8
0
  6
Continuous
 62
     7
370
    15
100
AcDbLine
 10
2571.3264666778
 20
4195.0945088553
 30
0.0
 11
2571.3264666778
 21
4209.0945088553
 31
0.0
  0
LINE
  5
10E
330
1F
100
AcDbEntity
  8
0
  6
Continuous
 62
     7
370
    15
100
AcDbLine
 10
1496.0024251445
 20
3629.1403941417
 30
0.0
 11
1496.0024251445
 21
3643.1403345254
 31
0.0
  0
LINE
  5
10F
330
1F
100
AcDbEntity
  8
0
  6
Continuous
 62
     7
370
    15
100
AcDbLine
 10
1451.0024251445
 20
3643.1403345254
 30
0.0
 11
1451.0024251445
 21
3629.1403941417
 31
0.0
  0
ARC
  5
110
330
1F
100
AcDbEntity
  8
0
  6
Continuous
 62
     7
370
    15
100
AcDbCircle
 10
2549.0012522204
 20
4297.0945088553
 30
0.0
 40
90.00000000000004
100
AcDbArc
 50
283.5362027374
 51
75.0066801301
  0
ARC
  5
111
330
1F
100
AcDbEntity
  8
0
  6
Continuous
 62
     7
370
    15
100
AcDbCircle
 10
2549.0012522204
 20
4297.0945088553
 30
0.0
 40
90.00000000000016
100
AcDbArc
 50
101.6529478135
 51
256.4637972626
  0
ARC
  5
112
330
1F
100
AcDbEntity
  8
0
  6
Continuous
 62
     7
370
    15
100
AcDbCircle
 10
1803.1783836112
 20
3961.1405099907
 30
0.0
 40
89.99999999999972
100
AcDbArc
 50
103.5362027374
 51
76.4637972626
  0
ARC
  5
113
330
1F
100
AcDbEntity
  8
0
  6
Continuous
 62
     7
370
    15
100
AcDbCircle
 10
2878.5024251445
 20
3877.0933371419
 30
0.0
 40
89.99999999999977
100
AcDbArc
 50
283.5781005554
 51
256.4218994448
  0
ARC
  5
114
330
1F
100
AcDbEntity
  8
0
  6
Continuous
 62
     7
370
    15
100
AcDbCircle
 10
2176.0024251445
 20
4431.1405099907
 30
0.0
 40
90.00000000000004
100
AcDbArc
 50
103.5362027374
 51
76.4637972626
  0
ARC
  5
115
330
1F
100
AcDbEntity
  8
0
  6
Continuous
 62
     7
370
    15
100
AcDbCircle
 10
2553.5024251445
 20
4767.094178671
 30
0.0
 40
90.00000000000016
100
AcDbArc
 50
283.5362027374
 51
256.4637972626
  0
ARC
  5
116
330
1F
100
AcDbEntity
  8
0
  6
Continuous
 62
     7
370
    15
100
AcDbCircle
 10
1803.0035980686
 20
4297.0945088553
 30
0.0
 40
90.00000000000088
100
AcDbArc
 50
283.5362027374
 51
256.4637972626
  0
ARC
  5
117
330
1F
100
AcDbEntity
  8
0
  6
Continuous
 62
     7
370
    15
100
AcDbCircle
 10
2548.8264666778
 20
3961.1405099907
 30
0.0
 40
89.99999999999976
100
AcDbArc
 50
103.5362027374
 51
76.4637972626
  0
ARC
  5
118
330
1F
100
AcDbEntity
  8
0
  6
Continuous
 62
     7
370
    15
100
AcDbCircle
 10
1473.5024251445
 20
3877.0933371419
 30
0.0
 40
90.00000000000021
100
AcDbArc
 50
283.5781005579
 51
256.4218994422
  0
ARC
  5
119
330
1F
100
AcDbEntity
  8
0
  6
Continuous
 62
     7
370
    15
100
AcDbCircle
 10
2176.3593852525
 20
3541.1412138866
 30
0.0
 40
90.00000000000077
100
AcDbArc
 50
269.7727518977
 51
76.3464665468
  0
ARC
  5
11A
330
1F
100
AcDbEntity
  8
0
  6
Continuous
 62
     7
370
    15
100
AcDbCircle
 10
1798.5024251445
 20
4767.094178671
 30
0.0
 40
90.0000000000001
100
AcDbArc
 50
283.5362027374
 51
256.4637972626
  0
ARC
  5
11B
330
1F
100
AcDbEntity
  8
0
  6
Continuous
 62
     7
370
    15
100
AcDbCircle
 10
2175.6454650365
 20
3541.1412138866
 30
0.0
 40
90.00000000000004
100
AcDbArc
 50
103.3996917239
 51
76.3272862491
  0
LINE
  5
11C
330
1F
100
AcDbEntity
  8
0
  6
Continuous
 62
     7
370
    15
100
AcDbLine
 10
1760.5024251445
 20
4634.1171792387
 30
0.0
 11
1760.5024251445
 21
4564.1171792387
 31
0.0
  0
LINE
  5
11D
330
1F
100
AcDbEntity
  8
0
  6
Continuous
 62
     7
370
    15
100
AcDbLine
 10
1836.5024251445
 20
4613.5710445244
 30
0.0
 11
1836.5024251445
 21
4634.1171792387
 31
0.0
  0
LINE
  5
11E
330
1F
100
AcDbEntity
  8
0
  6
Continuous
 62
     7
370
    15
100
AcDbLine
 10
1836.5024251445
 20
4564.1171792387
 30
0.0
 11
1836.5024251445
 21
4584.6684135771
 31
0.0
  0
ARC
  5
11F
330
1F
100
AcDbEntity
  8
0
  6
Continuous
 62
     7
370
    15
100
AcDbCircle
 10
1795.5024251445
 20
4564.1171792387
 30
0.0
 40
35.0
100
AcDbArc
 50
180.0
 51
241.6423634237
  0
ARC
  5
120
330
1F
100
AcDbEntity
  8
0
  6
Continuous
 62
     7
370
    15
100
AcDbCircle
 10
1801.5024251445
 20
4564.1171792387
 30
0.0
 40
35.0
100
AcDbArc
 50
298.3576365763001
 51
0.0
  0
ARC
  5
121
330
1F
100
AcDbEntity
  8
0
  6
Continuous
 62
     7
370
    15
100
AcDbCircle
 10
1795.5024251445
 20
4634.1171792387
 30
0.0
 40
35.00000000000011
100
AcDbArc
 50
118.3576365763
 51
180.0
  0
ARC
  5
122
330
1F
100
AcDbEntity
  8
0
  6
Continuous
 62
     7
370
    15
100
AcDbCircle
 10
1801.5024251445
 20
4634.1171792387
 30
0.0
 40
35.00000000000021
100
AcDbArc
 50
0.0
 51
61.6423634237
  0
LINE
  5
123
330
1F
100
AcDbEntity
  8
0
  6
Continuous
 62
     7
370
    15
100
AcDbLine
 10
1778.8783462226
 20
4533.3171792387
 30
0.0
 11
1779.2220098406
 21
4533.1401798064
 31
0.0
  0
LINE
  5
124
330
1F
100
AcDbEntity
  8
0
  6
Continuous
 62
     7
370
    15
100
AcDbLine
 10
1817.7828404484
 20
4533.1401798064
 30
0.0
 11
1818.1265040664
 21
4533.3171792387
 31
0.0
  0
LINE
  5
125
330
1F
100
AcDbEntity
  8
0
  6
Continuous
 62
     7
370
    15
100
AcDbLine
 10
1779.2220098406
 20
4665.094178671
 30
0.0
 11
1778.8783462226
 21
4664.9171792387
 31
0.0
  0
LINE
  5
126
330
1F
100
AcDbEntity
  8
0
  6
Continuous
 62
     7
370
    15
100
AcDbLine
 10
1818.1265040664
 20
4664.9171792387
 30
0.0
 11
1817.7828404484
 21
4665.094178671
 31
0.0
  0
SPLINE
  5
127
330
1F
100
AcDbEntity
  8
0
  6
Continuous
 62
     7
370
    15
100
AcDbSpline
210
0.0
220
0.0
230
1.0
 70
     8
 71
     3
 72
    14
 73
    10
 74
     0
 42
0.00000001
 43
0.00000001
 40
0.0
 40
0.0
 40
0.0
 40
0.0
 40
0.0270351844844871
 40
0.1813375995403341
 40
0.3715822842088657
 40
0.553049853680317
 40
0.7505479574507222
 40
0.9669460763372201
 40
1.0
 40
1.0
 40
1.0
 40
1.0
 10
1836.511989725677
 20
4584.668981336406
 30
0.0
 10
1836.509793331444
 20
4584.710634141543
 30
0.0
 10
1836.495061090272
 20
4584.990018944782
 30
0.0
 10
1836.625434456777
 20
4585.559939492213
 30
0.0
 10
1836.966927043568
 20
4586.301829630595
 30
0.0
 10
1837.564582893097
 20
4586.967418598168
 30
0.0
 10
1838.359182655975
 20
4587.433719040664
 30
0.0
 10
1839.047018976122
 20
4587.643210612235
 30
0.0
 10
1839.430338689157
 20
4587.605698861178
 30
0.0
 10
1839.481130899169
 20
4587.600728324384
 30
0.0
  0
SPLINE
  5
128
330
1F
100
AcDbEntity
  8
0
  6
Continuous
 62
     7
370
    15
100
AcDbSpline
210
0.0
220
0.0
230
1.0
 70
     8
 71
     3
 72
    14
 73
    10
 74
     0
 42
0.00000001
 43
0.00000001
 40
0.0
 40
0.0
 40
0.0
 40
0.0
 40
0.1302956892046063
 40
0.331324716992048
 40
0.519951669151354
 40
0.6803060592864022
 40
0.8201997107108959
 40
0.9412152307757743
 40
1.0
 40
1.0
 40
1.0
 40
1.0
 10
1839.460039494038
 20
4610.647063408123
 30
0.0
 10
1839.258631631179
 20
4610.649646699955
 30
0.0
 10
1838.746478055193
 20
4610.65621566966
 30
0.0
 10
1837.990248011107
 20
4610.978828911777
 30
0.0
 10
1837.319050625861
 20
4611.504315808216
 30
0.0
 10
1836.870308379869
 20
4612.119100177028
 30
0.0
 10
1836.620710555394
 20
4612.719965284361
 30
0.0
 10
1836.512463914599
 20
4613.204351715657
 30
0.0
 10
1836.511448522927
 20
4613.481051876006
 30
0.0
 10
1836.511116545903
 20
4613.57151755398
 30
0.0
  0
LINE
  5
129
330
1F
100
AcDbEntity
  8
0
  6
Continuous
 62
     7
370
    15
100
AcDbLine
 10
1848.5024251445
 20
4610.6171792387
 30
0.0
 11
1839.4500400659
 21
4610.6171792387
 31
0.0
  0
LINE
  5
12A
330
1F
100
AcDbEntity
  8
0
  6
Continuous
 62
     7
370
    15
100
AcDbLine
 10
1839.4854058862
 20
4587.6171792387
 30
0.0
 11
1848.5024251445
 21
4587.6171792387
 31
0.0
  0
ARC
  5
12B
330
1F
100
AcDbEntity
  8
0
  6
Continuous
 62
     7
370
    15
100
AcDbCircle
 10
1848.5024251445
 20
4608.6171792387
 30
0.0
 40
2.000000000000385
100
AcDbArc
 50
9.5940682268
 51
90.0
  0
ARC
  5
12C
330
1F
100
AcDbEntity
  8
0
  6
Continuous
 62
     7
370
    15
100
AcDbCircle
 10
1848.5024251445
 20
4589.6171792387
 30
0.0
 40
2.000000000000233
100
AcDbArc
 50
270.0
 51
350.4059317732
  0
ARC
  5
12D
330
1F
100
AcDbEntity
  8
0
  6
Continuous
 62
     7
370
    15
100
AcDbCircle
 10
1849.9814450903
 20
4589.3671792387
 30
0.0
 40
0.5
100
AcDbArc
 50
350.4059317733
 51
0.0
  0
ARC
  5
12E
330
1F
100
AcDbEntity
  8
0
  6
Continuous
 62
     7
370
    15
100
AcDbCircle
 10
1849.9814450903
 20
4608.8671792387
 30
0.0
 40
0.5000000000000583
100
AcDbArc
 50
0.0
 51
9.5940682268
  0
LINE
  5
12F
330
1F
100
AcDbEntity
  8
0
  6
Continuous
 62
     7
370
    15
100
AcDbLine
 10
1850.4814450903
 20
4589.3671792387
 30
0.0
 11
1850.4814450903
 21
4608.8671792387
 31
0.0
  0
ARC
  5
130
330
1F
100
AcDbEntity
  8
0
  6
Continuous
 62
     7
370
    15
100
AcDbCircle
 10
1806.1783836112
 20
4094.117509423
 30
0.0
 40
35.0
100
AcDbArc
 50
298.3576365763001
 51
0.0
  0
LINE
  5
131
330
1F
100
AcDbEntity
  8
0
  6
Continuous
 62
     7
370
    15
100
AcDbLine
 10
1841.1783836112
 20
4094.117509423
 30
0.0
 11
1841.1783836112
 21
4118.1890510417
 31
0.0
  0
LINE
  5
132
330
1F
100
AcDbEntity
  8
0
  6
Continuous
 62
     7
370
    15
100
AcDbLine
 10
1841.1783836112
 20
4140.0441268953
 30
0.0
 11
1841.1783836112
 21
4164.117509423
 31
0.0
  0
ARC
  5
133
330
1F
100
AcDbEntity
  8
0
  6
Continuous
 62
     7
370
    15
100
AcDbCircle
 10
1806.1783836112
 20
4164.117509423
 30
0.0
 40
35.00000000000021
100
AcDbArc
 50
0.0
 51
61.6423634237
  0
LINE
  5
134
330
1F
100
AcDbEntity
  8
0
  6
Continuous
 62
     7
370
    15
100
AcDbLine
 10
1822.4587989152
 20
4063.1405099907
 30
0.0
 11
1822.8024625331
 21
4063.317509423
 31
0.0
  0
LINE
  5
135
330
1F
100
AcDbEntity
  8
0
  6
Continuous
 62
     7
370
    15
100
AcDbLine
 10
1822.8024625331
 20
4194.917509423
 30
0.0
 11
1822.4587989152
 21
4195.0945088553
 31
0.0
  0
ARC
  5
136
330
1F
100
AcDbEntity
  8
0
  6
Continuous
 62
     7
370
    15
100
AcDbCircle
 10
1800.0035980686
 20
4164.117509423
 30
0.0
 40
35.00000000000021
100
AcDbArc
 50
118.3576365763
 51
180.0
  0
ARC
  5
137
330
1F
100
AcDbEntity
  8
0
  6
Continuous
 62
     7
370
    15
100
AcDbCircle
 10
1806.0035980686
 20
4164.117509423
 30
0.0
 40
35.00000000000011
100
AcDbArc
 50
0.0
 51
61.6423634237
  0
LINE
  5
138
330
1F
100
AcDbEntity
  8
0
  6
Continuous
 62
     7
370
    15
100
AcDbLine
 10
1765.0035980686
 20
4164.117509423
 30
0.0
 11
1765.0035980686
 21
4094.117509423
 31
0.0
  0
LINE
  5
139
330
1F
100
AcDbEntity
  8
0
  6
Continuous
 62
     7
370
    15
100
AcDbLine
 10
1841.0035980686
 20
4094.117509423
 30
0.0
 11
1841.0035980686
 21
4164.117509423
 31
0.0
  0
ARC
  5
13A
330
1F
100
AcDbEntity
  8
0
  6
Continuous
 62
     7
370
    15
100
AcDbCircle
 10
1800.0035980686
 20
4094.117509423
 30
0.0
 40
35.0
100
AcDbArc
 50
180.0
 51
241.6423634237
  0
ARC
  5
13B
330
1F
100
AcDbEntity
  8
0
  6
Continuous
 62
     7
370
    15
100
AcDbCircle
 10
1806.0035980686
 20
4094.117509423
 30
0.0
 40
35.0
100
AcDbArc
 50
298.3576365763001
 51
0.0
  0
LINE
  5
13C
330
1F
100
AcDbEntity
  8
0
  6
Continuous
 62
     7
370
    15
100
AcDbLine
 10
1783.7231827647
 20
4195.0945088553
 30
0.0
 11
1783.3795191467
 21
4194.917509423
 31
0.0
  0
LINE
  5
13D
330
1F
100
AcDbEntity
  8
0
  6
Continuous
 62
     7
370
    15
100
AcDbLine
 10
1822.6276769905
 20
4194.917509423
 30
0.0
 11
1822.2840133725
 21
4195.0945088553
 31
0.0
  0
LINE
  5
13E
330
1F
100
AcDbEntity
  8
0
  6
Continuous
 62
     7
370
    15
100
AcDbLine
 10
1783.3795191467
 20
4063.317509423
 30
0.0
 11
1783.7231827647
 21
4063.1405099907
 31
0.0
  0
LINE
  5
13F
330
1F
100
AcDbEntity
  8
0
  6
Continuous
 62
     7
370
    15
100
AcDbLine
 10
1822.2840133725
 20
4063.1405099907
 30
0.0
 11
1822.6276769905
 21
4063.317509423
 31
0.0
  0
SPLINE
  5
140
330
1F
100
AcDbEntity
  8
0
  6
Continuous
 62
     7
370
    15
100
AcDbSpline
210
0.0
220
0.0
230
1.0
 70
     8
 71
     3
 72
    23
 73
    19
 74
     0
 42
0.00000001
 43
0.00000001
 40
0.0
 40
0.0
 40
0.0
 40
0.0
 40
0.0279211138798753
 40
0.0907347089188201
 40
0.1547230357322449
 40
0.2199520560871178
 40
0.2861175447668013
 40
0.3528026324053126
 40
0.4196754535244573
 40
0.4866036153463038
 40
0.5536079691376317
 40
0.6207540114779662
 40
0.6881070493410689
 40
0.7557235501906182
 40
0.8235540966839782
 40
0.8912723591180518
 40
0.9583339090373515
 40
1.0
 40
1.0
 40
1.0
 40
1.0
 10
1841.003598068602
 20
4118.189051041709
 30
0.0
 10
1841.210546890824
 20
4118.265899464646
 30
0.0
 10
1841.88306451409
 20
4118.515632312557
 30
0.0
 10
1842.919940002015
 20
4119.243057946083
 30
0.0
 10
1844.082665648665
 20
4120.334324489171
 30
0.0
 10
1845.089552754116
 20
4121.686456145992
 30
0.0
 10
1845.918883049075
 20
4123.24564049805
 30
0.0
 10
1846.543186059467
 20
4124.974381021435
 30
0.0
 10
1846.944395171589
 20
4126.820415844666
 30
0.0
 10
1847.111455800724
 20
4128.73153938568
 30
0.0
 10
1847.039803020665
 20
4130.65575598108
 30
0.0
 10
1846.729700759555
 20
4132.542163305988
 30
0.0
 10
1846.185810767
 20
4134.341294083974
 30
0.0
 10
1845.416328602577
 20
4136.003005152056
 30
0.0
 10
1844.436631843779
 20
4137.482756841655
 30
0.0
 10
1843.262916278942
 20
4138.714013939262
 30
0.0
 10
1842.10816646247
 20
4139.594549046908
 30
0.0
 10
1841.309615125356
 20
4139.919572824502
 30
0.0
 10
1841.003598068602
 20
4140.04412689532
 30
0.0
  0
ARC
  5
141
330
1F
100
AcDbEntity
  8
0
  6
Continuous
 62
     7
370
    15
100
AcDbCircle
 10
2179.0024251445
 20
4634.117509423
 30
0.0
 40
35.00000000000021
100
AcDbArc
 50
0.0
 51
61.6423634237
  0
ARC
  5
142
330
1F
100
AcDbEntity
  8
0
  6
Continuous
 62
     7
370
    15
100
AcDbCircle
 10
2173.0024251445
 20
4634.117509423
 30
0.0
 40
35.00000000000021
100
AcDbArc
 50
118.3576365763
 51
180.0
  0
ARC
  5
143
330
1F
100
AcDbEntity
  8
0
  6
Continuous
 62
     7
370
    15
100
AcDbCircle
 10
2179.0024251445
 20
4564.117509423
 30
0.0
 40
35.00000000000021
100
AcDbArc
 50
298.3576365763001
 51
0.0
  0
ARC
  5
144
330
1F
100
AcDbEntity
  8
0
  6
Continuous
 62
     7
370
    15
100
AcDbCircle
 10
2173.0024251445
 20
4564.117509423
 30
0.0
 40
35.00000000000021
100
AcDbArc
 50
180.0
 51
241.6423634237
  0
LINE
  5
145
330
1F
100
AcDbEntity
  8
0
  6
Continuous
 62
     7
370
    15
100
AcDbLine
 10
2214.0024251445
 20
4564.117509423
 30
0.0
 11
2214.0024251445
 21
4634.117509423
 31
0.0
  0
LINE
  5
146
330
1F
100
AcDbEntity
  8
0
  6
Continuous
 62
     7
370
    15
100
AcDbLine
 10
2138.0024251445
 20
4634.117509423
 30
0.0
 11
2138.0024251445
 21
4564.117509423
 31
0.0
  0
LINE
  5
147
330
1F
100
AcDbEntity
  8
0
  6
Continuous
 62
     7
370
    15
100
AcDbLine
 10
2195.2828404484
 20
4533.1405099907
 30
0.0
 11
2195.6265040664
 21
4533.317509423
 31
0.0
  0
LINE
  5
148
330
1F
100
AcDbEntity
  8
0
  6
Continuous
 62
     7
370
    15
100
AcDbLine
 10
2156.3783462226
 20
4533.317509423
 30
0.0
 11
2156.7220098406
 21
4533.1405099907
 31
0.0
  0
LINE
  5
149
330
1F
100
AcDbEntity
  8
0
  6
Continuous
 62
     7
370
    15
100
AcDbLine
 10
2195.6265040664
 20
4664.917509423
 30
0.0
 11
2195.2828404484
 21
4665.0945088553
 31
0.0
  0
LINE
  5
14A
330
1F
100
AcDbEntity
  8
0
  6
Continuous
 62
     7
370
    15
100
AcDbLine
 10
2156.7220098406
 20
4665.0945088553
 30
0.0
 11
2156.3783462226
 21
4664.917509423
 31
0.0
  0
ARC
  5
14B
330
1F
100
AcDbEntity
  8
0
  6
Continuous
 62
     7
370
    15
100
AcDbCircle
 10
2552.0012522204
 20
4094.117509423
 30
0.0
 40
35.0
100
AcDbArc
 50
298.3576365763001
 51
0.0
  0
LINE
  5
14C
330
1F
100
AcDbEntity
  8
0
  6
Continuous
 62
     7
370
    15
100
AcDbLine
 10
2587.0012522204
 20
4094.117509423
 30
0.0
 11
2587.0012522204
 21
4164.117509423
 31
0.0
  0
ARC
  5
14D
330
1F
100
AcDbEntity
  8
0
  6
Continuous
 62
     7
370
    15
100
AcDbCircle
 10
2552.0012522204
 20
4164.117509423
 30
0.0
 40
35.00000000000043
100
AcDbArc
 50
0.0
 51
61.6423634237
  0
LINE
  5
14E
330
1F
100
AcDbEntity
  8
0
  6
Continuous
 62
     7
370
    15
100
AcDbLine
 10
2568.2816675243
 20
4063.1405099907
 30
0.0
 11
2568.6253311423
 21
4063.317509423
 31
0.0
  0
LINE
  5
14F
330
1F
100
AcDbEntity
  8
0
  6
Continuous
 62
     7
370
    15
100
AcDbLine
 10
2568.6253311423
 20
4194.917509423
 30
0.0
 11
2568.2816675243
 21
4195.0945088553
 31
0.0
  0
ARC
  5
150
330
1F
100
AcDbEntity
  8
0
  6
Continuous
 62
     7
370
    15
100
AcDbCircle
 10
2178.962282786
 20
3674.1106881957
 30
0.0
 40
34.99999999999997
100
AcDbArc
 50
298.2211255629
 51
359.8634889865
  0
ARC
  5
151
330
1F
100
AcDbEntity
  8
0
  6
Continuous
 62
     7
370
    15
100
AcDbCircle
 10
2172.9622998158
 20
3674.1249835821
 30
0.0
 40
35.00000000000043
100
AcDbArc
 50
179.8634889865
 51
241.5058524102
  0
ARC
  5
152
330
1F
100
AcDbEntity
  8
0
  6
Continuous
 62
     7
370
    15
100
AcDbCircle
 10
2179.1290622937
 20
3744.1104895139
 30
0.0
 40
34.99999999999997
100
AcDbArc
 50
359.8634889865
 51
61.50585241020001
  0
ARC
  5
153
330
1F
100
AcDbEntity
  8
0
  6
Continuous
 62
     7
370
    15
100
AcDbCircle
 10
2173.1290793236
 20
3744.1247849003
 30
0.0
 40
35.00000000000043
100
AcDbArc
 50
118.2211255629
 51
179.8634889865
  0
LINE
  5
154
330
1F
100
AcDbEntity
  8
0
  6
Continuous
 62
     7
370
    15
100
AcDbLine
 10
2213.9621834451
 20
3674.0272984418
 30
0.0
 11
2214.1289629528
 21
3744.0270997601
 31
0.0
  0
LINE
  5
155
330
1F
100
AcDbEntity
  8
0
  6
Continuous
 62
     7
370
    15
100
AcDbLine
 10
2138.1291786644
 20
3744.2081746542
 30
0.0
 11
2137.9623991567
 21
3674.2083733359
 31
0.0
  0
LINE
  5
156
330
1F
100
AcDbEntity
  8
0
  6
Continuous
 62
     7
370
    15
100
AcDbLine
 10
2195.8264770147
 20
3774.8707941554
 30
0.0
 11
2195.4832360847
 21
3775.048611886
 31
0.0
  0
LINE
  5
157
330
1F
100
AcDbEntity
  8
0
  6
Continuous
 62
     7
370
    15
100
AcDbLine
 10
2156.9225149245
 20
3775.1404855481
 30
0.0
 11
2156.5784305694
 21
3774.9643054189
 31
0.0
  0
LINE
  5
158
330
1F
100
AcDbEntity
  8
0
  6
Continuous
 62
     7
370
    15
100
AcDbLine
 10
2195.1688471851
 20
3643.0949875479
 30
0.0
 11
2195.5129315401
 21
3643.2711676771
 31
0.0
  0
LINE
  5
159
330
1F
100
AcDbEntity
  8
0
  6
Continuous
 62
     7
370
    15
100
AcDbLine
 10
2156.2648850949
 20
3643.3646789406
 30
0.0
 11
2156.6081260248
 21
3643.18686121
 31
0.0
  0
SPLINE
  5
15A
330
1F
100
AcDbEntity
  8
0
  6
Continuous
 62
     7
370
    15
100
AcDbSpline
210
0.0
220
0.0
230
1.0
 70
     8
 71
     3
 72
    20
 73
    16
 74
     0
 42
0.00000001
 43
0.00000001
 40
0.0
 40
0.0
 40
0.0
 40
0.0
 40
0.0669250274032657
 40
0.1454803766463963
 40
0.225533258331041
 40
0.3065922566881886
 40
0.388347936743586
 40
0.470598818319668
 40
0.5532093446446213
 40
0.6360851624967298
 40
0.7191583072903908
 40
0.802378068385057
 40
0.8940681570011881
 40
0.9841599937926088
 40
1.0
 40
1.0
 40
1.0
 40
1.0
 10
1493.026096359554
 20
3643.277743698185
 30
0.0
 10
1493.762906764572
 20
3643.686644719236
 30
0.0
 10
1495.364571484007
 20
3644.575506134191
 30
0.0
 10
1497.69093124879
 20
3646.210892939867
 30
0.0
 10
1500.018534101361
 20
3648.133404893782
 30
0.0
 10
1502.195708468479
 20
3650.284646757117
 30
0.0
 10
1504.19468437542
 20
3652.638250465004
 30
0.0
 10
1505.9889443111
 20
3655.175707207815
 30
0.0
 10
1507.557760631076
 20
3657.874636003603
 30
0.0
 10
1508.884556634019
 20
3660.712150587292
 30
0.0
 10
1509.953084792706
 20
3663.664118338267
 30
0.0
 10
1510.78834453972
 20
3666.807530702732
 30
0.0
 10
1511.309273311805
 20
3670.102965446536
 30
0.0
 10
1511.535891451165
 20
3672.589747381942
 30
0.0
 10
1511.486420305895
 20
3673.922212074656
 30
0.0
 10
1511.479022877266
 20
3674.121455743097
 30
0.0
  0
SPLINE
  5
15B
330
1F
100
AcDbEntity
  8
0
  6
Continuous
 62
     7
370
    15
100
AcDbSpline
210
0.0
220
0.0
230
1.0
 70
     8
 71
     3
 72
    20
 73
    16
 74
     0
 42
0.00000001
 43
0.00000001
 40
0.0
 40
0.0
 40
0.0
 40
0.0
 40
0.0854454394572584
 40
0.1722488224551493
 40
0.2575491126671477
 40
0.3414027427832071
 40
0.4238319045396914
 40
0.5048339207030125
 40
0.5843823383522716
 40
0.6624264845083875
 40
0.738889504343542
 40
0.8136647754765842
 40
0.886610400570224
 40
0.9575412668469185
 40
0.9999999999999999
 40
0.9999999999999999
 40
0.9999999999999999
 40
0.9999999999999999
 10
1435.502425144501
 20
3674.117202048266
 30
0.0
 10
1435.530947056605
 20
3673.044485169376
 30
0.0
 10
1435.588444165933
 20
3670.882003234819
 30
0.0
 10
1436.052852533267
 20
3667.676089219156
 30
0.0
 10
1436.785638914002
 20
3664.54494018821
 30
0.0
 10
1437.788164103242
 20
3661.546035366131
 30
0.0
 10
1439.031474950386
 20
3658.6982306914
 30
0.0
 10
1440.494461589592
 20
3656.018234691357
 30
0.0
 10
1442.152578105592
 20
3653.520506361444
 30
0.0
 10
1443.980661749648
 20
3651.21678439262
 30
0.0
 10
1445.952877428069
 20
3649.117232800079
 30
0.0
 10
1448.040465721324
 20
3647.225797793858
 30
0.0
 10
1450.220561919152
 20
3645.556456446647
 30
0.0
 10
1452.169881026601
 20
3644.257176425155
 30
0.0
 10
1453.424923184529
 20
3643.585421484127
 30
0.0
 10
1453.894873694516
 20
3643.333882860401
 30
0.0
  0
LINE
  5
15C
330
1F
100
AcDbEntity
  8
0
  6
Continuous
 62
     7
370
    15
100
AcDbLine
 10
1435.5024251445
 20
3744.1169039666
 30
0.0
 11
1435.5024251445
 21
3674.1172020481
 31
0.0
  0
LINE
  5
15D
330
1F
100
AcDbEntity
  8
0
  6
Continuous
 62
     7
370
    15
100
AcDbLine
 10
1511.5024251445
 20
3723.5708567441
 30
0.0
 11
1511.5024251445
 21
3744.1169039666
 31
0.0
  0
LINE
  5
15E
330
1F
100
AcDbEntity
  8
0
  6
Continuous
 62
     7
370
    15
100
AcDbLine
 10
1511.5024251445
 20
3674.1172020481
 30
0.0
 11
1511.5024251445
 21
3694.6683488731
 31
0.0
  0
SPLINE
  5
15F
330
1F
100
AcDbEntity
  8
0
  6
Continuous
 62
     7
370
    15
100
AcDbSpline
210
0.0
220
0.0
230
1.0
 70
     8
 71
     3
 72
    20
 73
    16
 74
     0
 42
0.00000001
 43
0.00000001
 40
0.0
 40
0.0
 40
0.0
 40
0.0
 40
0.0607263254095736
 40
0.1394447475102483
 40
0.2196927213283915
 40
0.3009670023336435
 40
0.3829510746608639
 40
0.4654391314368706
 40
0.5482929092198322
 40
0.631416314599932
 40
0.7147402342913894
 40
0.7982131819319419
 40
0.890261003903944
 40
0.973860870364875
 40
1.0
 40
1.0
 40
1.0
 40
1.0
 10
1453.882548266177
 20
3774.897235159147
 30
0.0
 10
1453.215056564066
 20
3774.529214573241
 30
0.0
 10
1451.682307608182
 20
3773.68413565015
 30
0.0
 10
1449.419014075666
 20
3772.101675924358
 30
0.0
 10
1447.085328727741
 20
3770.190173430595
 30
0.0
 10
1444.901108783519
 20
3768.048093803577
 30
0.0
 10
1442.89366839849
 20
3765.703072938143
 30
0.0
 10
1441.090009516186
 20
3763.173193589312
 30
0.0
 10
1439.510830916819
 20
3760.48087754511
 30
0.0
 10
1438.173444086317
 20
3757.648945103178
 30
0.0
 10
1437.092096756535
 20
3754.701454916913
 30
0.0
 10
1436.249406972916
 20
3751.560703397228
 30
0.0
 10
1435.708680056728
 20
3748.35010650852
 30
0.0
 10
1435.517337202897
 20
3745.821582287212
 30
0.0
 10
1435.505293805115
 20
3744.444836129217
 30
0.0
 10
1435.502425144501
 20
3744.116903966734
 30
0.0
  0
SPLINE
  5
160
330
1F
100
AcDbEntity
  8
0
  6
Continuous
 62
     7
370
    15
100
AcDbSpline
210
0.0
220
0.0
230
1.0
 70
     8
 71
     3
 72
    20
 73
    16
 74
     0
 42
0.00000001
 43
0.00000001
 40
0.0
 40
0.0
 40
0.0
 40
0.0
 40
0.0725220249883417
 40
0.1592901814346265
 40
0.2445558109779714
 40
0.3283734941312293
 40
0.4107691974777979
 40
0.4917437092676447
 40
0.5712740488579303
 40
0.6493132417752147
 40
0.7257885829389121
 40
0.8005983075060202
 40
0.8736064004195546
 40
0.9446350678280434
 40
1.0
 40
1.0
 40
1.0
 40
1.0
 10
1511.479022877266
 20
3744.121157661563
 30
0.0
 10
1511.467711520355
 20
3745.03448156751
 30
0.0
 10
1511.44286681842
 20
3747.040541529434
 30
0.0
 10
1511.033039443825
 20
3750.09873406253
 30
0.0
 10
1510.342324278568
 20
3753.247182751343
 30
0.0
 10
1509.375781683535
 20
3756.266266235774
 30
0.0
 10
1508.166040948365
 20
3759.136856303257
 30
0.0
 10
1506.733047556024
 20
3761.841890526628
 30
0.0
 10
1505.101458329857
 20
3764.366592063705
 30
0.0
 10
1503.296180907118
 20
3766.698799638518
 30
0.0
 10
1501.34304242136
 20
3768.828201062327
 30
0.0
 10
1499.270204900375
 20
3770.749648013357
 30
0.0
 10
1497.101974254589
 20
3772.451680887378
 30
0.0
 10
1495.021826484805
 20
3773.863037518689
 30
0.0
 10
1493.625268672178
 20
3774.626155631996
 30
0.0
 10
1493.013526235639
 20
3774.960428749643
 30
0.0
  0
LINE
  5
161
330
1F
100
AcDbEntity
  8
0
  6
Continuous
 62
     7
370
    15
100
AcDbLine
 10
1454.3415259054
 20
3775.1183129905
 30
0.0
 11
1453.879997157
 21
3774.8979702257
 31
0.0
  0
SPLINE
  5
162
330
1F
100
AcDbEntity
  8
0
  6
Continuous
 62
     7
370
    15
100
AcDbSpline
210
0.0
220
0.0
230
1.0
 70
     8
 71
     3
 72
    14
 73
    10
 74
     0
 42
0.00000001
 43
0.00000001
 40
0.0
 40
0.0
 40
0.0
 40
0.0
 40
0.1849535865987738
 40
0.4001376377785281
 40
0.5774644190044405
 40
0.7302245434453086
 40
0.8634700118151237
 40
0.977848545555468
 40
1.0
 40
1.0
 40
1.0
 40
1.0
 10
1514.46947750516
 20
3720.624911156005
 30
0.0
 10
1514.183571137417
 20
3720.648429328501
 30
0.0
 10
1513.565027313972
 20
3720.699309693465
 30
0.0
 10
1512.754528997446
 20
3721.124077666397
 30
0.0
 10
1512.143282174182
 20
3721.709640512271
 30
0.0
 10
1511.765395960116
 20
3722.324862776045
 30
0.0
 10
1511.571525137664
 20
3722.912233139775
 30
0.0
 10
1511.499455418787
 20
3723.32612535339
 30
0.0
 10
1511.506722705246
 20
3723.536186764627
 30
0.0
 10
1511.507901793937
 20
3723.570268403711
 30
0.0
  0
SPLINE
  5
163
330
1F
100
AcDbEntity
  8
0
  6
Continuous
 62
     7
370
    15
100
AcDbSpline
210
0.0
220
0.0
230
1.0
 70
     8
 71
     3
 72
    13
 73
     9
 74
     0
 42
0.00000001
 43
0.00000001
 40
0.0
 40
0.0
 40
0.0
 40
0.0
 40
0.0835051993702159
 40
0.2478498453319744
 40
0.4425710629338506
 40
0.6323124195530319
 40
0.8315471842784339
 40
1.0
 40
1.0
 40
1.0
 40
1.0
 10
1511.513173073594
 20
3694.666525244079
 30
0.0
 10
1511.516063413712
 20
3694.795690401669
 30
0.0
 10
1511.524642165175
 20
3695.179062509902
 30
0.0
 10
1511.725870357756
 20
3695.84431416762
 30
0.0
 10
1512.171207418372
 20
3696.579830023553
 30
0.0
 10
1512.859836746422
 20
3697.178127638572
 30
0.0
 10
1513.65806670843
 20
3697.55695274871
 30
0.0
 10
1514.229698130672
 20
3697.58557025432
 30
0.0
 10
1514.491586015258
 20
3697.598681111622
 30
0.0
  0
LINE
  5
164
330
1F
100
AcDbEntity
  8
0
  6
Continuous
 62
     7
370
    15
100
AcDbLine
 10
1523.5024251445
 20
3720.6170530074
 30
0.0
 11
1514.4511521433
 21
3720.6170530074
 31
0.0
  0
LINE
  5
165
330
1F
100
AcDbEntity
  8
0
  6
Continuous
 62
     7
370
    15
100
AcDbLine
 10
1514.4852235942
 20
3697.6170530074
 30
0.0
 11
1523.5024251445
 21
3697.6170530074
 31
0.0
  0
ARC
  5
166
330
1F
100
AcDbEntity
  8
0
  6
Continuous
 62
     7
370
    15
100
AcDbCircle
 10
1523.5024251445
 20
3718.6170530074
 30
0.0
 40
2.00000000000016
100
AcDbArc
 50
9.5940682269
 51
90.0
  0
ARC
  5
167
330
1F
100
AcDbEntity
  8
0
  6
Continuous
 62
     7
370
    15
100
AcDbCircle
 10
1523.5024251445
 20
3699.6170530074
 30
0.0
 40
2.000000000000085
100
AcDbArc
 50
270.0
 51
350.4059317732
  0
ARC
  5
168
330
1F
100
AcDbEntity
  8
0
  6
Continuous
 62
     7
370
    15
100
AcDbCircle
 10
1524.9814450903
 20
3699.3670530074
 30
0.0
 40
0.5000000000002274
100
AcDbArc
 50
350.4059317732
 51
0.0
  0
ARC
  5
169
330
1F
100
AcDbEntity
  8
0
  6
Continuous
 62
     7
370
    15
100
AcDbCircle
 10
1524.9814450903
 20
3718.8670530074
 30
0.0
 40
0.5000000000002824
100
AcDbArc
 50
0.0
 51
9.5940682268
  0
LINE
  5
16A
330
1F
100
AcDbEntity
  8
0
  6
Continuous
 62
     7
370
    15
100
AcDbLine
 10
1525.4814450903
 20
3699.3670530074
 30
0.0
 11
1525.4814450903
 21
3718.8670530074
 31
0.0
  0
ARC
  5
16B
330
1F
100
AcDbEntity
  8
0
  6
Continuous
 62
     7
370
    15
100
AcDbCircle
 10
2551.8264666778
 20
4164.117509423
 30
0.0
 40
35.00000000000021
100
AcDbArc
 50
0.0
 51
61.6423634237
  0
ARC
  5
16C
330
1F
100
AcDbEntity
  8
0
  6
Continuous
 62
     7
370
    15
100
AcDbCircle
 10
2545.8264666778
 20
4164.117509423
 30
0.0
 40
35.00000000000021
100
AcDbArc
 50
118.3576365763
 51
180.0
  0
ARC
  5
16D
330
1F
100
AcDbEntity
  8
0
  6
Continuous
 62
     7
370
    15
100
AcDbCircle
 10
2551.8264666778
 20
4094.117509423
 30
0.0
 40
35.0
100
AcDbArc
 50
298.3576365763001
 51
0.0
  0
ARC
  5
16E
330
1F
100
AcDbEntity
  8
0
  6
Continuous
 62
     7
370
    15
100
AcDbCircle
 10
2545.8264666778
 20
4094.117509423
 30
0.0
 40
35.0
100
AcDbArc
 50
180.0
 51
241.6423634237
  0
LINE
  5
16F
330
1F
100
AcDbEntity
  8
0
  6
Continuous
 62
     7
370
    15
100
AcDbLine
 10
2586.8264666778
 20
4094.117509423
 30
0.0
 11
2586.8264666778
 21
4164.117509423
 31
0.0
  0
LINE
  5
170
330
1F
100
AcDbEntity
  8
0
  6
Continuous
 62
     7
370
    15
100
AcDbLine
 10
2510.8264666778
 20
4164.117509423
 30
0.0
 11
2510.8264666778
 21
4094.117509423
 31
0.0
  0
LINE
  5
171
330
1F
100
AcDbEntity
  8
0
  6
Continuous
 62
     7
370
    15
100
AcDbLine
 10
2568.4505455996
 20
4194.917509423
 30
0.0
 11
2568.1068819817
 21
4195.0945088553
 31
0.0
  0
LINE
  5
172
330
1F
100
AcDbEntity
  8
0
  6
Continuous
 62
     7
370
    15
100
AcDbLine
 10
2529.5460513739
 20
4195.0945088553
 30
0.0
 11
2529.2023877559
 21
4194.917509423
 31
0.0
  0
LINE
  5
173
330
1F
100
AcDbEntity
  8
0
  6
Continuous
 62
     7
370
    15
100
AcDbLine
 10
2568.1068819817
 20
4063.1405099907
 30
0.0
 11
2568.4505455996
 21
4063.317509423
 31
0.0
  0
LINE
  5
174
330
1F
100
AcDbEntity
  8
0
  6
Continuous
 62
     7
370
    15
100
AcDbLine
 10
2529.2023877559
 20
4063.317509423
 30
0.0
 11
2529.5460513739
 21
4063.1405099907
 31
0.0
  0
SPLINE
  5
175
330
1F
100
AcDbEntity
  8
0
  6
Continuous
 62
     7
370
    15
100
AcDbSpline
210
0.0
220
0.0
230
1.0
 70
     8
 71
     3
 72
    23
 73
    19
 74
     0
 42
0.00000001
 43
0.00000001
 40
0.0
 40
0.0
 40
0.0
 40
0.0
 40
0.027921113879901
 40
0.0907347089188443
 40
0.1547230357322633
 40
0.2199520560871322
 40
0.2861175447668117
 40
0.3528026324053188
 40
0.4196754535244593
 40
0.486603615346302
 40
0.5536079691376248
 40
0.6207540114779552
 40
0.6881070493410538
 40
0.7557235501905986
 40
0.8235540966839542
 40
0.8912723591180239
 40
0.9583339090373186
 40
1.0
 40
1.0
 40
1.0
 40
1.0
 10
2510.826466677789
 20
4140.045967804292
 30
0.0
 10
2510.619517855566
 20
4139.969119381355
 30
0.0
 10
2509.947000232301
 20
4139.719386533444
 30
0.0
 10
2508.910124744375
 20
4138.991960899918
 30
0.0
 10
2507.747399097725
 20
4137.90069435683
 30
0.0
 10
2506.740511992274
 20
4136.548562700009
 30
0.0
 10
2505.911181697315
 20
4134.989378347951
 30
0.0
 10
2505.286878686923
 20
4133.260637824565
 30
0.0
 10
2504.8856695748
 20
4131.414603001334
 30
0.0
 10
2504.718608945666
 20
4129.503479460321
 30
0.0
 10
2504.790261725725
 20
4127.579262864921
 30
0.0
 10
2505.100363986834
 20
4125.692855540013
 30
0.0
 10
2505.64425397939
 20
4123.893724762026
 30
0.0
 10
2506.413736143813
 20
4122.232013693944
 30
0.0
 10
2507.393432902611
 20
4120.752262004346
 30
0.0
 10
2508.567148467448
 20
4119.521004906739
 30
0.0
 10
2509.72189828392
 20
4118.640469799092
 30
0.0
 10
2510.520449621034
 20
4118.315446021497
 30
0.0
 10
2510.826466677789
 20
4118.19089195068
 30
0.0
  0
SPLINE
  5
176
330
1F
100
AcDbEntity
  8
0
  6
Continuous
 62
     7
370
    15
100
AcDbSpline
210
0.0
220
0.0
230
1.0
 70
     8
 71
     3
 72
    20
 73
    16
 74
     0
 42
0.00000001
 43
0.00000001
 40
0.0
 40
0.0
 40
0.0
 40
0.0
 40
0.0672333041740254
 40
0.1457627516528223
 40
0.2257892377970439
 40
0.3068215088704805
 40
0.3885502319277798
 40
0.4707739932247005
 40
0.5533572806861715
 40
0.636205772201068
 40
0.7192515255937099
 40
0.802443846944095
 40
0.8941037029254729
 40
0.984165834067694
 40
1.0
 40
1.0
 40
1.0
 40
1.0
 10
2858.98956268919
 20
3774.962592859177
 30
0.0
 10
2858.249096370498
 20
3774.55170207397
 30
0.0
 10
2856.643754948642
 20
3773.660885056773
 30
0.0
 10
2854.313899369708
 20
3772.023245397022
 30
0.0
 10
2851.986321571954
 20
3770.100692270783
 30
0.0
 10
2849.80914035557
 20
3767.949461662759
 30
0.0
 10
2847.810166309249
 20
3765.595854897528
 30
0.0
 10
2846.015905870022
 20
3763.058398981713
 30
0.0
 10
2844.447089687174
 20
3760.359469962735
 30
0.0
 10
2843.120293643075
 20
3757.521955439071
 30
0.0
 10
2842.051765511865
 20
3754.569987671965
 30
0.0
 10
2841.216505694395
 20
3751.426575311702
 30
0.0
 10
2840.695577200119
 20
3748.131140567441
 30
0.0
 10
2840.468959015871
 20
3745.644366401743
 30
0.0
 10
2840.518429596568
 20
3744.311909476811
 30
0.0
 10
2840.525826695477
 20
3744.112673576879
 30
0.0
  0
SPLINE
  5
177
330
1F
100
AcDbEntity
  8
0
  6
Continuous
 62
     7
370
    15
100
AcDbSpline
210
0.0
220
0.0
230
1.0
 70
     8
 71
     3
 72
    20
 73
    16
 74
     0
 42
0.00000001
 43
0.00000001
 40
0.0
 40
0.0
 40
0.0
 40
0.0
 40
0.0854311804790989
 40
0.1722200778873947
 40
0.2575061333430049
 40
0.3413457701189579
 40
0.4237611762478578
 40
0.5047496749429888
 40
0.5842848176979594
 40
0.6623159399898176
 40
0.7387661998160896
 40
0.8135289925887406
 40
0.8864624446499635
 40
0.9573814741135201
 40
1.0
 40
1.0
 40
1.0
 40
1.0
 10
2916.502425144502
 20
3744.116903966818
 30
0.0
 10
2916.473903232396
 20
3745.189620845725
 30
0.0
 10
2916.416406123066
 20
3747.352102780314
 30
0.0
 10
2915.951997755564
 20
3750.558016795734
 30
0.0
 10
2915.219211375312
 20
3753.689165827552
 30
0.0
 10
2914.216686184181
 20
3756.688070646397
 30
0.0
 10
2912.973375343796
 20
3759.53587533283
 30
0.0
 10
2911.510388679905
 20
3762.215871290257
 30
0.0
 10
2909.852272253448
 20
3764.713599774841
 30
0.0
 10
2908.02418828463
 20
3767.017321182742
 30
0.0
 10
2906.0519737812
 20
3769.116874804733
 30
0.0
 10
2903.964381248674
 20
3771.008302488854
 30
0.0
 10
2901.784300287623
 20
3772.677670153114
 30
0.0
 10
2899.833187304715
 20
3773.978031397037
 30
0.0
 10
2898.57627777808
 20
3774.650740622498
 30
0.0
 10
2898.104472382652
 20
3774.903255091838
 30
0.0
  0
LINE
  5
178
330
1F
100
AcDbEntity
  8
0
  6
Continuous
 62
     7
370
    15
100
AcDbLine
 10
2840.5024251445
 20
3694.6683488731
 30
0.0
 11
2840.5024251445
 21
3674.1172020481
 31
0.0
  0
LINE
  5
179
330
1F
100
AcDbEntity
  8
0
  6
Continuous
 62
     7
370
    15
100
AcDbLine
 10
2840.5024251445
 20
3744.1169039666
 30
0.0
 11
2840.5024251445
 21
3723.5708567441
 31
0.0
  0
LINE
  5
17A
330
1F
100
AcDbEntity
  8
0
  6
Continuous
 62
     7
370
    15
100
AcDbLine
 10
2916.5024251445
 20
3674.1172020481
 30
0.0
 11
2916.5024251445
 21
3744.1169039666
 31
0.0
  0
SPLINE
  5
17B
330
1F
100
AcDbEntity
  8
0
  6
Continuous
 62
     7
370
    15
100
AcDbSpline
210
0.0
220
0.0
230
1.0
 70
     8
 71
     3
 72
    20
 73
    16
 74
     0
 42
0.00000001
 43
0.00000001
 40
0.0
 40
0.0
 40
0.0
 40
0.0
 40
0.0605770096277705
 40
0.1393079455491003
 40
0.2195686763398431
 40
0.3008558774691086
 40
0.3828529827554086
 40
0.4653541526086178
 40
0.5482211016072657
 40
0.631357721065533
 40
0.7146948867107185
 40
0.7981811039960609
 40
0.8902435587552849
 40
0.9738567150376893
 40
1.0
 40
1.0
 40
1.0
 40
1.0
 10
2898.127495529523
 20
3643.339839708398
 30
0.0
 10
2898.793231738732
 20
3643.706910977735
 30
0.0
 10
2900.324214270758
 20
3644.551058695092
 30
0.0
 10
2902.585825867144
 20
3646.132447232572
 30
0.0
 10
2904.919524395064
 20
3648.043927889204
 30
0.0
 10
2907.103740734935
 20
3650.186013488052
 30
0.0
 10
2909.111182099214
 20
3652.531032731023
 30
0.0
 10
2910.914840716561
 20
3655.06091251884
 30
0.0
 10
2912.494019387409
 20
3657.753228444602
 30
0.0
 10
2913.831406198649
 20
3660.585160918437
 30
0.0
 10
2914.912753533596
 20
3663.532651096133
 30
0.0
 10
2915.755443315782
 20
3666.673402618176
 30
0.0
 10
2916.296170232374
 20
3669.883999506208
 30
0.0
 10
2916.487513086113
 20
3672.412523727739
 30
0.0
 10
2916.499556483889
 20
3673.789269885802
 30
0.0
 10
2916.502425144502
 20
3674.11720204835
 30
0.0
  0
SPLINE
  5
17C
330
1F
100
AcDbEntity
  8
0
  6
Continuous
 62
     7
370
    15
100
AcDbSpline
210
0.0
220
0.0
230
1.0
 70
     8
 71
     3
 72
    20
 73
    16
 74
     0
 42
0.00000001
 43
0.00000001
 40
0.0
 40
0.0
 40
0.0
 40
0.0
 40
0.0725466919685578
 40
0.1593436218542982
 40
0.24463752657997
 40
0.3284830047577232
 40
0.4109060315820074
 40
0.4919073955640697
 40
0.5714641084403798
 40
0.6495291801601764
 40
0.726029881533102
 40
0.8008644139693526
 40
0.8738967173076122
 40
0.9449489387378175
 40
1.0
 40
1.0
 40
1.0
 40
1.0
 10
2840.525826695477
 20
3674.112971658412
 30
0.0
 10
2840.537138076312
 20
3673.199639971164
 30
0.0
 10
2840.561982715561
 20
3671.193572222915
 30
0.0
 10
2840.971810766143
 20
3668.135371946204
 30
0.0
 10
2841.662526032014
 20
3664.986923264647
 30
0.0
 10
2842.629068598082
 20
3661.967839773648
 30
0.0
 10
2843.838809351128
 20
3659.097249725151
 30
0.0
 10
2845.271802701781
 20
3656.392215434352
 30
0.0
 10
2846.90339207371
 20
3653.867514142119
 30
0.0
 10
2848.70866896963
 20
3651.535305679681
 30
0.0
 10
2850.661809362045
 20
3649.405907468913
 30
0.0
 10
2852.734640001176
 20
3647.484448920605
 30
0.0
 10
2854.902895397041
 20
3645.782457755451
 30
0.0
 10
2856.979495656947
 20
3644.373312245689
 30
0.0
 10
2858.372347766157
 20
3643.612138666143
 30
0.0
 10
2858.980404790179
 20
3643.279844276463
 30
0.0
  0
LINE
  5
17D
330
1F
100
AcDbEntity
  8
0
  6
Continuous
 62
     7
370
    15
100
AcDbLine
 10
2897.6647790495
 20
3643.1164875099
 30
0.0
 11
2898.1305200886
 21
3643.3388413039
 31
0.0
  0
SPLINE
  5
17E
330
1F
100
AcDbEntity
  8
0
  6
Continuous
 62
     7
370
    15
100
AcDbSpline
210
0.0
220
0.0
230
1.0
 70
     8
 71
     3
 72
    15
 73
    11
 74
     0
 42
0.00000001
 43
0.00000001
 40
0.0
 40
0.0
 40
0.0
 40
0.0
 40
0.0312853359245466
 40
0.2301931461260617
 40
0.4367833109207933
 40
0.6086630825430439
 40
0.757553613691572
 40
0.8872610726951013
 40
0.9980564365536136
 40
1.0
 40
1.0
 40
1.0
 40
1.0
 10
2837.524465076605
 20
3697.600390225579
 30
0.0
 10
2837.572525806655
 20
3697.605551829976
 30
0.0
 10
2837.92614996725
 20
3697.64353019652
 30
0.0
 10
2838.59849754736
 20
3697.448189378911
 30
0.0
 10
2839.382727221024
 20
3697.014866049514
 30
0.0
 10
2839.945489210299
 20
3696.410779961675
 30
0.0
 10
2840.288196700249
 20
3695.798535814573
 30
0.0
 10
2840.453417550633
 20
3695.219613376504
 30
0.0
 10
2840.510808655801
 20
3694.845080405606
 30
0.0
 10
2840.501982326625
 20
3694.671851815008
 30
0.0
 10
2840.501830165068
 20
3694.668865439631
 30
0.0
  0
SPLINE
  5
17F
330
1F
100
AcDbEntity
  8
0
  6
Continuous
 62
     7
370
    15
100
AcDbSpline
210
0.0
220
0.0
230
1.0
 70
     8
 71
     3
 72
    13
 73
     9
 74
     0
 42
0.00000001
 43
0.00000001
 40
0.0
 40
0.0
 40
0.0
 40
0.0
 40
0.0968415404087888
 40
0.2533078332174231
 40
0.4421289432988323
 40
0.6324693982452194
 40
0.8324733135429109
 40
1.0
 40
1.0
 40
1.0
 40
1.0
 10
2840.487380376765
 20
3723.572423923988
 30
0.0
 10
2840.484659183271
 20
3723.423022322429
 30
0.0
 10
2840.47754137386
 20
3723.032233454242
 30
0.0
 10
2840.268074395885
 20
3722.373782752561
 30
0.0
 10
2839.836362810684
 20
3721.659600201039
 30
0.0
 10
2839.158888302268
 20
3721.065005319589
 30
0.0
 10
2838.365689851709
 20
3720.682502462308
 30
0.0
 10
2837.796862933316
 20
3720.651093924625
 30
0.0
 10
2837.537581969088
 20
3720.636777380046
 30
0.0
  0
ARC
  5
180
330
1F
100
AcDbEntity
  8
0
  6
Continuous
 62
     7
370
    15
100
AcDbCircle
 10
2828.5024251445
 20
3699.6170530074
 30
0.0
 40
2.0
100
AcDbArc
 50
189.5940682268
 51
270.0
  0
ARC
  5
181
330
1F
100
AcDbEntity
  8
0
  6
Continuous
 62
     7
370
    15
100
AcDbCircle
 10
2828.5024251445
 20
3718.6170530074
 30
0.0
 40
2.0
100
AcDbArc
 50
90.0
 51
170.4059317731
  0
LINE
  5
182
330
1F
100
AcDbEntity
  8
0
  6
Continuous
 62
     7
370
    15
100
AcDbLine
 10
2828.5024251445
 20
3697.6170530074
 30
0.0
 11
2837.5196266948
 21
3697.6170530074
 31
0.0
  0
LINE
  5
183
330
1F
100
AcDbEntity
  8
0
  6
Continuous
 62
     7
370
    15
100
AcDbLine
 10
2837.5536981457
 20
3720.6170530074
 30
0.0
 11
2828.5024251445
 21
3720.6170530074
 31
0.0
  0
ARC
  5
184
330
1F
100
AcDbEntity
  8
0
  6
Continuous
 62
     7
370
    15
100
AcDbCircle
 10
2827.0234051987
 20
3718.8670530074
 30
0.0
 40
0.5000000000000583
100
AcDbArc
 50
170.4059317732
 51
180.0
  0
ARC
  5
185
330
1F
100
AcDbEntity
  8
0
  6
Continuous
 62
     7
370
    15
100
AcDbCircle
 10
2827.0234051987
 20
3699.3670530074
 30
0.0
 40
0.5
100
AcDbArc
 50
180.0
 51
189.5940682268
  0
LINE
  5
186
330
1F
100
AcDbEntity
  8
0
  6
Continuous
 62
     7
370
    15
100
AcDbLine
 10
2826.5234051987
 20
3718.8670530074
 30
0.0
 11
2826.5234051987
 21
3699.3670530074
 31
0.0
  0
ARC
  5
187
330
1F
100
AcDbEntity
  8
0
  6
Continuous
 62
     7
370
    15
100
AcDbCircle
 10
2550.5024251445
 20
4564.1171792387
 30
0.0
 40
35.00000000000091
100
AcDbArc
 50
180.0
 51
241.6423634237
  0
ARC
  5
188
330
1F
100
AcDbEntity
  8
0
  6
Continuous
 62
     7
370
    15
100
AcDbCircle
 10
2556.5024251445
 20
4564.1171792387
 30
0.0
 40
35.00000000000091
100
AcDbArc
 50
298.3576365763001
 51
0.0
  0
LINE
  5
189
330
1F
100
AcDbEntity
  8
0
  6
Continuous
 62
     7
370
    15
100
AcDbLine
 10
2515.5024251445
 20
4584.6684135771
 30
0.0
 11
2515.5024251445
 21
4564.1171792387
 31
0.0
  0
LINE
  5
18A
330
1F
100
AcDbEntity
  8
0
  6
Continuous
 62
     7
370
    15
100
AcDbLine
 10
2515.5024251445
 20
4634.1171792387
 30
0.0
 11
2515.5024251445
 21
4613.5710445244
 31
0.0
  0
LINE
  5
18B
330
1F
100
AcDbEntity
  8
0
  6
Continuous
 62
     7
370
    15
100
AcDbLine
 10
2591.5024251445
 20
4564.1171792387
 30
0.0
 11
2591.5024251445
 21
4634.1171792387
 31
0.0
  0
ARC
  5
18C
330
1F
100
AcDbEntity
  8
0
  6
Continuous
 62
     7
370
    15
100
AcDbCircle
 10
2550.5024251445
 20
4634.1171792387
 30
0.0
 40
35.00000000000091
100
AcDbArc
 50
118.3576365763
 51
180.0
  0
ARC
  5
18D
330
1F
100
AcDbEntity
  8
0
  6
Continuous
 62
     7
370
    15
100
AcDbCircle
 10
2556.5024251445
 20
4634.1171792387
 30
0.0
 40
35.00000000000091
100
AcDbArc
 50
0.0
 51
61.6423634237
  0
LINE
  5
18E
330
1F
100
AcDbEntity
  8
0
  6
Continuous
 62
     7
370
    15
100
AcDbLine
 10
2533.8783462226
 20
4533.3171792387
 30
0.0
 11
2534.2220098406
 21
4533.1401798064
 31
0.0
  0
LINE
  5
18F
330
1F
100
AcDbEntity
  8
0
  6
Continuous
 62
     7
370
    15
100
AcDbLine
 10
2572.7828404484
 20
4533.1401798064
 30
0.0
 11
2573.1265040664
 21
4533.3171792387
 31
0.0
  0
LINE
  5
190
330
1F
100
AcDbEntity
  8
0
  6
Continuous
 62
     7
370
    15
100
AcDbLine
 10
2534.2220098406
 20
4665.094178671
 30
0.0
 11
2533.8783462226
 21
4664.9171792387
 31
0.0
  0
LINE
  5
191
330
1F
100
AcDbEntity
  8
0
  6
Continuous
 62
     7
370
    15
100
AcDbLine
 10
2573.1265040664
 20
4664.9171792387
 30
0.0
 11
2572.7828404484
 21
4665.094178671
 31
0.0
  0
SPLINE
  5
192
330
1F
100
AcDbEntity
  8
0
  6
Continuous
 62
     7
370
    15
100
AcDbSpline
210
0.0
220
0.0
230
1.0
 70
     8
 71
     3
 72
    13
 73
     9
 74
     0
 42
0.00000001
 43
0.00000001
 40
0.0
 40
0.0
 40
0.0
 40
0.0
 40
0.0209999198153288
 40
0.2406153703397161
 40
0.4279273807369722
 40
0.6170945732792635
 40
0.8169551404650489
 40
1.0
 40
1.0
 40
1.0
 40
1.0
 10
2515.493209337552
 20
4613.569263117584
 30
0.0
 10
2515.495667209295
 20
4613.53705016008
 30
0.0
 10
2515.523829303473
 20
4613.167956717447
 30
0.0
 10
2515.333123520456
 20
4612.510259015604
 30
0.0
 10
2514.877329241623
 20
4611.709139417588
 30
0.0
 10
2514.214806307831
 20
4611.102266054075
 30
0.0
 10
2513.411244240463
 20
4610.694573899329
 30
0.0
 10
2512.819341654136
 20
4610.651219259237
 30
0.0
 10
2512.536387383414
 20
4610.630493922244
 30
0.0
  0
SPLINE
  5
193
330
1F
100
AcDbEntity
  8
0
  6
Continuous
 62
     7
370
    15
100
AcDbSpline
210
0.0
220
0.0
230
1.0
 70
     8
 71
     3
 72
    14
 73
    10
 74
     0
 42
0.00000001
 43
0.00000001
 40
0.0
 40
0.0
 40
0.0
 40
0.0
 40
0.041768325158026
 40
0.2407913309471132
 40
0.4452625813131832
 40
0.6157682433519795
 40
0.7636312086677517
 40
0.8923793324561092
 40
1.0
 40
1.0
 40
1.0
 40
1.0
 10
2512.523722624024
 20
4587.596073010654
 30
0.0
 10
2512.588031885125
 20
4587.602295339289
 30
0.0
 10
2512.958770058471
 20
4587.638166607479
 30
0.0
 10
2513.641563996764
 20
4587.432308357053
 30
0.0
 10
2514.414392627267
 20
4586.988106924714
 30
0.0
 10
2514.96681108543
 20
4586.382406584865
 30
0.0
 10
2515.295829086576
 20
4585.770859963688
 30
0.0
 10
2515.468275094423
 20
4585.197361900779
 30
0.0
 10
2515.491200712679
 20
4584.832430166054
 30
0.0
 10
2515.501638936467
 20
4584.666273726037
 30
0.0
  0
ARC
  5
194
330
1F
100
AcDbEntity
  8
0
  6
Continuous
 62
     7
370
    15
100
AcDbCircle
 10
2503.5024251445
 20
4589.6171792387
 30
0.0
 40
2.000000000000233
100
AcDbArc
 50
189.5940682268
 51
270.0
  0
ARC
  5
195
330
1F
100
AcDbEntity
  8
0
  6
Continuous
 62
     7
370
    15
100
AcDbCircle
 10
2503.5024251445
 20
4608.6171792387
 30
0.0
 40
2.000000000000385
100
AcDbArc
 50
90.0
 51
170.4059317732
  0
LINE
  5
196
330
1F
100
AcDbEntity
  8
0
  6
Continuous
 62
     7
370
    15
100
AcDbLine
 10
2503.5024251445
 20
4587.6171792387
 30
0.0
 11
2512.5194444028
 21
4587.6171792387
 31
0.0
  0
LINE
  5
197
330
1F
100
AcDbEntity
  8
0
  6
Continuous
 62
     7
370
    15
100
AcDbLine
 10
2512.5548102231
 20
4610.6171792387
 30
0.0
 11
2503.5024251445
 21
4610.6171792387
 31
0.0
  0
ARC
  5
198
330
1F
100
AcDbEntity
  8
0
  6
Continuous
 62
     7
370
    15
100
AcDbCircle
 10
2502.0234051987
 20
4608.8671792387
 30
0.0
 40
0.5000000000005067
100
AcDbArc
 50
170.4059317732
 51
180.0
  0
ARC
  5
199
330
1F
100
AcDbEntity
  8
0
  6
Continuous
 62
     7
370
    15
100
AcDbCircle
 10
2502.0234051987
 20
4589.3671792387
 30
0.0
 40
0.500000000000355
100
AcDbArc
 50
180.0
 51
189.5940682267
  0
LINE
  5
19A
330
1F
100
AcDbEntity
  8
0
  6
Continuous
 62
     7
370
    15
100
AcDbLine
 10
2501.5234051987
 20
4608.8671792387
 30
0.0
 11
2501.5234051987
 21
4589.3671792387
 31
0.0
  0
LINE
  5
19B
330
1F
100
AcDbEntity
  8
0
  6
Continuous
 62
     7
370
    15
100
AcDbLine
 10
2214.0424511323
 20
3674.2083733359
 30
0.0
 11
2214.0025330006
 21
3690.9625976692
 31
0.0
  0
LINE
  5
19C
330
1F
100
AcDbEntity
  8
0
  6
Continuous
 62
     7
370
    15
100
AcDbLine
 10
2137.8758873362
 20
3744.0270997601
 30
0.0
 11
2137.9352362077
 21
3719.117509423
 31
0.0
  0
LINE
  5
19D
330
1F
100
AcDbEntity
  8
0
  6
Continuous
 62
     7
370
    15
100
AcDbLine
 10
2137.9828876308
 20
3699.117509423
 30
0.0
 11
2138.0023172884
 21
3690.9625976692
 31
0.0
  0
ARC
  5
19E
330
1F
100
AcDbEntity
  8
0
  6
Continuous
 62
     7
370
    15
100
AcDbCircle
 10
2179.0425504732
 20
3674.1249835821
 30
0.0
 40
35.00000000000031
100
AcDbArc
 50
298.4941475898
 51
0.1365110135
  0
ARC
  5
19F
330
1F
100
AcDbEntity
  8
0
  6
Continuous
 62
     7
370
    15
100
AcDbCircle
 10
2172.8757879953
 20
3744.1104895139
 30
0.0
 40
34.99999999999997
100
AcDbArc
 50
118.4941475898
 51
180.1365110135
  0
LINE
  5
1A0
330
1F
100
AcDbEntity
  8
0
  6
Continuous
 62
     7
370
    15
100
AcDbLine
 10
2195.3967242642
 20
3643.18686121
 30
0.0
 11
2195.7399651941
 21
3643.3646789406
 31
0.0
  0
LINE
  5
1A1
330
1F
100
AcDbEntity
  8
0
  6
Continuous
 62
     7
370
    15
100
AcDbLine
 10
2156.5216142043
 20
3775.048611886
 30
0.0
 11
2156.1783732743
 21
3774.8707941554
 31
0.0
  0
LINE
  5
1A2
330
1F
100
AcDbEntity
  8
0
  6
Continuous
 62
     7
370
    15
100
AcDbLine
 10
2501.874576407
 20
4121.117509423
 30
0.0
 11
2507.2106474458
 21
4121.117509423
 31
0.0
  0
LINE
  5
1A3
330
1F
100
AcDbEntity
  8
0
  6
Continuous
 62
     7
370
    15
100
AcDbLine
 10
2212.6679029017
 20
4121.117509423
 30
0.0
 11
2498.9246115469
 21
4121.117509423
 31
0.0
  0
LINE
  5
1A4
330
1F
100
AcDbEntity
  8
0
  6
Continuous
 62
     7
370
    15
100
AcDbLine
 10
2204.275690673
 20
4121.117509423
 30
0.0
 11
2209.7179380416
 21
4121.117509423
 31
0.0
  0
LINE
  5
1A5
330
1F
100
AcDbEntity
  8
0
  6
Continuous
 62
     7
370
    15
100
AcDbLine
 10
2209.7179380416
 20
4137.117509423
 30
0.0
 11
2204.275690673
 21
4137.117509423
 31
0.0
  0
LINE
  5
1A6
330
1F
100
AcDbEntity
  8
0
  6
Continuous
 62
     7
370
    15
100
AcDbLine
 10
2498.3144377091
 20
4137.117509423
 30
0.0
 11
2212.6679029017
 21
4137.117509423
 31
0.0
  0
LINE
  5
1A7
330
1F
100
AcDbEntity
  8
0
  6
Continuous
 62
     7
370
    15
100
AcDbLine
 10
2507.220979527
 20
4137.117509423
 30
0.0
 11
2502.1554279668
 21
4137.117509423
 31
0.0
  0
LINE
  5
1A8
330
1F
100
AcDbEntity
  8
0
  6
Continuous
 62
     7
370
    15
100
AcDbLine
 10
2209.8927235842
 20
4137.117509423
 30
0.0
 11
2209.7179380416
 21
4137.117509423
 31
0.0
  0
LINE
  5
1A9
330
1F
100
AcDbEntity
  8
0
  6
Continuous
 62
     7
370
    15
100
AcDbLine
 10
1849.8494223222
 20
4137.117509423
 30
0.0
 11
1844.6194173006
 21
4137.117509423
 31
0.0
  0
LINE
  5
1AA
330
1F
100
AcDbEntity
  8
0
  6
Continuous
 62
     7
370
    15
100
AcDbLine
 10
2139.1621618447
 20
4137.117509423
 30
0.0
 11
1853.6904125799
 21
4137.117509423
 31
0.0
  0
LINE
  5
1AB
330
1F
100
AcDbEntity
  8
0
  6
Continuous
 62
     7
370
    15
100
AcDbLine
 10
2147.729159616
 20
4137.117509423
 30
0.0
 11
2142.1121267048
 21
4137.117509423
 31
0.0
  0
LINE
  5
1AC
330
1F
100
AcDbEntity
  8
0
  6
Continuous
 62
     7
370
    15
100
AcDbLine
 10
2142.1121267048
 20
4121.117509423
 30
0.0
 11
2147.729159616
 21
4121.117509423
 31
0.0
  0
LINE
  5
1AD
330
1F
100
AcDbEntity
  8
0
  6
Continuous
 62
     7
370
    15
100
AcDbLine
 10
1852.9054531995
 20
4121.117509423
 30
0.0
 11
2139.1621618447
 21
4121.117509423
 31
0.0
  0
LINE
  5
1AE
330
1F
100
AcDbEntity
  8
0
  6
Continuous
 62
     7
370
    15
100
AcDbLine
 10
1844.6090852194
 20
4121.117509423
 30
0.0
 11
1849.9554883394
 21
4121.117509423
 31
0.0
  0
LINE
  5
1AF
330
1F
100
AcDbEntity
  8
0
  6
Continuous
 62
     7
370
    15
100
AcDbLine
 10
2139.3369473873
 20
4137.117509423
 30
0.0
 11
2139.1621618447
 21
4137.117509423
 31
0.0
  0
LINE
  5
1B0
330
1F
100
AcDbEntity
  8
0
  6
Continuous
 62
     7
370
    15
100
AcDbLine
 10
2139.1621618447
 20
4121.117509423
 30
0.0
 11
2139.3369473873
 21
4121.117509423
 31
0.0
  0
LINE
  5
1B1
330
1F
100
AcDbEntity
  8
0
  6
Continuous
 62
     7
370
    15
100
AcDbLine
 10
1849.9554883394
 20
4121.117509423
 30
0.0
 11
1850.130273882
 21
4121.117509423
 31
0.0
  0
LINE
  5
1B2
330
1F
100
AcDbEntity
  8
0
  6
Continuous
 62
     7
370
    15
100
AcDbLine
 10
1853.8783569151
 20
4136.9295650877
 30
0.0
 11
1853.6904125799
 21
4137.117509423
 31
0.0
  0
LINE
  5
1B3
330
1F
100
AcDbEntity
  8
0
  6
Continuous
 62
     7
370
    15
100
AcDbLine
 10
2159.3049089656
 20
4138.9731425098
 30
0.0
 11
2159.1605420525
 21
4139.117509423
 31
0.0
  0
LINE
  5
1B4
330
1F
100
AcDbEntity
  8
0
  6
Continuous
 62
     7
370
    15
100
AcDbLine
 10
2498.3144377091
 20
4137.117509423
 30
0.0
 11
2498.1264933739
 21
4136.9295650877
 31
0.0
  0
LINE
  5
1B5
330
1F
100
AcDbEntity
  8
0
  6
Continuous
 62
     7
370
    15
100
AcDbLine
 10
2192.8443082365
 20
4139.117509423
 30
0.0
 11
2192.6999413234
 21
4138.9731425098
 31
0.0
  0
LINE
  5
1B6
330
1F
100
AcDbEntity
  8
0
  6
Continuous
 62
     7
370
    15
100
AcDbLine
 10
2176.7524251445
 20
5190.3868746301
 30
0.0
 11
2176.7524251445
 21
5645.093547849
 31
0.0
  0
LINE
  5
1B7
330
1F
100
AcDbEntity
  8
0
  6
Continuous
 62
     7
370
    15
100
AcDbLine
 10
2175.2524251445
 20
5645.093547849
 30
0.0
 11
2175.2524251445
 21
5190.3868746301
 31
0.0
  0
LINE
  5
1B8
330
1F
100
AcDbEntity
  8
0
  6
Continuous
 62
     7
370
    15
100
AcDbLine
 10
2182.0024251445
 20
5645.593547849
 30
0.0
 11
2182.0024251445
 21
5654.893547849
 31
0.0
  0
LINE
  5
1B9
330
1F
100
AcDbEntity
  8
0
  6
Continuous
 62
     7
370
    15
100
AcDbLine
 10
2182.0024251445
 20
5654.893547849
 30
0.0
 11
2181.8024251445
 21
5655.093547849
 31
0.0
  0
LINE
  5
1BA
330
1F
100
AcDbEntity
  8
0
  6
Continuous
 62
     7
370
    15
100
AcDbLine
 10
2181.5024251445
 20
5645.093547849
 30
0.0
 11
2182.0024251445
 21
5645.593547849
 31
0.0
  0
LWPOLYLINE
  5
1BB
330
1F
100
AcDbEntity
  8
0
  6
Continuous
 62
     7
370
    15
100
AcDbPolyline
 90
        3
 70
   128
 43
0.0
 10
2166.5024251445
 20
5652.593547849
 10
2166.7950606275
 20
5652.6223699284
 10
2167.0276619304
 20
5652.6885117929
  0
ARC
  5
1BC
330
1F
100
AcDbEntity
  8
0
  6
Continuous
 62
     7
370
    15
100
AcDbCircle
 10
2155.5024251445
 20
5654.093547849
 30
0.0
 40
1.500000000000909
100
AcDbArc
 50
180.0
 51
270.0
  0
LINE
  5
1BD
330
1F
100
AcDbEntity
  8
0
  6
Continuous
 62
     7
370
    15
100
AcDbLine
 10
2154.0024251445
 20
5655.093547849
 30
0.0
 11
2154.0024251445
 21
5654.093547849
 31
0.0
  0
LINE
  5
1BE
330
1F
100
AcDbEntity
  8
0
  6
Continuous
 62
     7
370
    15
100
AcDbLine
 10
2258.5024251445
 20
5655.093547849
 30
0.0
 11
2258.5024251445
 21
5656.593547849
 31
0.0
  0
LINE
  5
1BF
330
1F
100
AcDbEntity
  8
0
  6
Continuous
 62
     7
370
    15
100
AcDbLine
 10
2093.5024251445
 20
5656.593547849
 30
0.0
 11
2093.5024251445
 21
5655.093547849
 31
0.0
  0
LINE
  5
1C0
330
1F
100
AcDbEntity
  8
0
  6
Continuous
 62
     7
370
    15
100
AcDbLine
 10
2103.5024251445
 20
5735.593547849
 30
0.0
 11
2103.5024251445
 21
5656.593547849
 31
0.0
  0
ARC
  5
1C1
330
1F
100
AcDbEntity
  8
0
  6
Continuous
 62
     7
370
    15
100
AcDbCircle
 10
2135.5024251445
 20
4590.617509423
 30
0.0
 40
1.5
100
AcDbArc
 50
180.0
 51
270.0
  0
ARC
  5
1C2
330
1F
100
AcDbEntity
  8
0
  6
Continuous
 62
     7
370
    15
100
AcDbCircle
 10
2135.5024251445
 20
4607.617509423
 30
0.0
 40
1.5
100
AcDbArc
 50
90.0
 51
180.0
  0
LINE
  5
1C3
330
1F
100
AcDbEntity
  8
0
  6
Continuous
 62
     7
370
    15
100
AcDbLine
 10
2135.5024251445
 20
4589.117509423
 30
0.0
 11
2138.0024251445
 21
4589.117509423
 31
0.0
  0
LINE
  5
1C4
330
1F
100
AcDbEntity
  8
0
  6
Continuous
 62
     7
370
    15
100
AcDbLine
 10
2138.0024251445
 20
4609.117509423
 30
0.0
 11
2135.5024251445
 21
4609.117509423
 31
0.0
  0
SPLINE
  5
1C5
330
1F
100
AcDbEntity
  8
0
  6
Continuous
 62
     7
370
    15
100
AcDbSpline
210
0.0
220
0.0
230
1.0
 70
     8
 71
     3
 72
     9
 73
     5
 74
     0
 42
0.00000001
 43
0.00000001
 40
0.0
 40
0.0
 40
0.0
 40
0.0
 40
0.599938524442018
 40
1.0
 40
1.0
 40
1.0
 40
1.0
 10
2147.311886172677
 20
4139.079570787041
 30
0.0
 10
2147.142369803189
 20
4139.094972554227
 30
0.0
 10
2146.859813570204
 20
4139.120644796561
 30
0.0
 10
2146.584622355076
 20
4139.047847570259
 30
0.0
 10
2146.474528951491
 20
4139.018724204489
 30
0.0
  0
LINE
  5
1C6
330
1F
100
AcDbEntity
  8
0
  6
Continuous
 62
     7
370
    15
100
AcDbLine
 10
2216.5024251445
 20
4609.117509423
 30
0.0
 11
2214.0024251445
 21
4609.117509423
 31
0.0
  0
LINE
  5
1C7
330
1F
100
AcDbEntity
  8
0
  6
Continuous
 62
     7
370
    15
100
AcDbLine
 10
2214.0024251445
 20
4589.117509423
 30
0.0
 11
2216.5024251445
 21
4589.117509423
 31
0.0
  0
ARC
  5
1C8
330
1F
100
AcDbEntity
  8
0
  6
Continuous
 62
     7
370
    15
100
AcDbCircle
 10
2216.5024251445
 20
4607.617509423
 30
0.0
 40
1.5
100
AcDbArc
 50
0.0
 51
90.0
  0
ARC
  5
1C9
330
1F
100
AcDbEntity
  8
0
  6
Continuous
 62
     7
370
    15
100
AcDbCircle
 10
2216.5024251445
 20
4590.617509423
 30
0.0
 40
1.5
100
AcDbArc
 50
270.0
 51
0.0
  0
SPLINE
  5
1CA
330
1F
100
AcDbEntity
  8
0
  6
Continuous
 62
     7
370
    15
100
AcDbSpline
210
0.0
220
0.0
230
1.0
 70
     8
 71
     3
 72
    11
 73
     7
 74
     0
 42
0.00000001
 43
0.00000001
 40
0.0
 40
0.0
 40
0.0
 40
0.0
 40
0.2074687400114156
 40
0.4958176772728017
 40
0.7860108732265824
 40
1.0
 40
1.0
 40
1.0
 40
1.0
 10
2147.105905078152
 20
4139.079329282869
 30
0.0
 10
2146.783314141161
 20
4139.062112751843
 30
0.0
 10
2146.012372508801
 20
4139.020967948901
 30
0.0
 10
2144.841292262111
 20
4138.587201176382
 30
0.0
 10
2143.731121425435
 20
4137.957441477749
 30
0.0
 10
2143.12786772976
 20
4137.367778807936
 30
0.0
 10
2142.871829932039
 20
4137.117509423
 30
0.0
  0
SPLINE
  5
1CB
330
1F
100
AcDbEntity
  8
0
  6
Continuous
 62
     7
370
    15
100
AcDbSpline
210
0.0
220
0.0
230
1.0
 70
     8
 71
     3
 72
    11
 73
     7
 74
     0
 42
0.00000001
 43
0.00000001
 40
0.0
 40
0.0
 40
0.0
 40
0.0
 40
0.2569610536935059
 40
0.5360395612245277
 40
0.8088230556249151
 40
1.0
 40
1.0
 40
1.0
 40
1.0
 10
2142.85111533032
 20
4121.117509423
 30
0.0
 10
2143.196095491654
 20
4120.799758906518
 30
0.0
 10
2143.915749352249
 20
4120.136908077623
 30
0.0
 10
2145.182818580367
 20
4119.493938766956
 30
0.0
 10
2146.419899558419
 20
4119.129153899099
 30
0.0
 10
2147.211619569525
 20
4119.145958924859
 30
0.0
 10
2147.537851290754
 20
4119.152883509816
 30
0.0
  0
LINE
  5
1CC
330
1F
100
AcDbEntity
  8
0
  6
Continuous
 62
     7
370
    15
100
AcDbLine
 10
2147.3646005064
 20
4119.117509423
 30
0.0
 11
2163.6280564737
 21
4119.117509423
 31
0.0
  0
LINE
  5
1CD
330
1F
100
AcDbEntity
  8
0
  6
Continuous
 62
     7
370
    15
100
AcDbLine
 10
2155.3195517948
 20
4139.117509423
 30
0.0
 11
2147.3646005064
 21
4139.117509423
 31
0.0
  0
LINE
  5
1CE
330
1F
100
AcDbEntity
  8
0
  6
Continuous
 62
     7
370
    15
100
AcDbLine
 10
2163.6280564737
 20
4139.117509423
 30
0.0
 11
2159.1605420525
 21
4139.117509423
 31
0.0
  0
LINE
  5
1CF
330
1F
100
AcDbEntity
  8
0
  6
Continuous
 62
     7
370
    15
100
AcDbLine
 10
2205.0996779643
 20
4139.0686743765
 30
0.0
 11
2204.5875354488
 21
4139.079570787
 31
0.0
  0
SPLINE
  5
1D0
330
1F
100
AcDbEntity
  8
0
  6
Continuous
 62
     7
370
    15
100
AcDbSpline
210
0.0
220
0.0
230
1.0
 70
     8
 71
     3
 72
    12
 73
     8
 74
     0
 42
0.00000001
 43
0.00000001
 40
0.0
 40
0.0
 40
0.0
 40
0.0
 40
0.0812037427486709
 40
0.3645585981958409
 40
0.6476965278531746
 40
0.9344743769745288
 40
1.0
 40
1.0
 40
1.0
 40
1.0
 10
2204.813500566864
 20
4119.152883509816
 30
0.0
 10
2204.942043232678
 20
4119.147209615275
 30
0.0
 10
2205.519126658531
 20
4119.121737057356
 30
0.0
 10
2206.534875125818
 20
4119.392408295009
 30
0.0
 10
2207.7818133632
 20
4119.975505820223
 30
0.0
 10
2208.659323782225
 20
4120.576011081874
 30
0.0
 10
2209.06274181394
 20
4121.032589496218
 30
0.0
 10
2209.137774335495
 20
4121.117509423
 30
0.0
  0
SPLINE
  5
1D1
330
1F
100
AcDbEntity
  8
0
  6
Continuous
 62
     7
370
    15
100
AcDbSpline
210
0.0
220
0.0
230
1.0
 70
     8
 71
     3
 72
    12
 73
     8
 74
     0
 42
0.00000001
 43
0.00000001
 40
0.0
 40
0.0
 40
0.0
 40
0.0
 40
0.1082747091896558
 40
0.3863761981176209
 40
0.6591640000234565
 40
0.9254666009748462
 40
0.9999999999999999
 40
0.9999999999999999
 40
0.9999999999999999
 40
0.9999999999999999
 10
2209.120810638356
 20
4137.117509423
 30
0.0
 10
2208.983179546398
 20
4137.266620261385
 30
0.0
 10
2208.492045666184
 20
4137.798719393899
 30
0.0
 10
2207.483461537257
 20
4138.438254091941
 30
0.0
 10
2206.154873004814
 20
4138.960892950865
 30
0.0
 10
2205.093733191063
 20
4139.163916745485
 30
0.0
 10
2204.509346891575
 20
4139.094507558204
 30
0.0
 10
2204.381554354262
 20
4139.079329282869
 30
0.0
  0
LINE
  5
1D2
330
1F
100
AcDbEntity
  8
0
  6
Continuous
 62
     7
370
    15
100
AcDbLine
 10
2192.8443082365
 20
4139.117509423
 30
0.0
 11
2188.3767938153
 21
4139.117509423
 31
0.0
  0
LINE
  5
1D3
330
1F
100
AcDbEntity
  8
0
  6
Continuous
 62
     7
370
    15
100
AcDbLine
 10
2204.6402497826
 20
4139.117509423
 30
0.0
 11
2196.6852984942
 21
4139.117509423
 31
0.0
  0
LINE
  5
1D4
330
1F
100
AcDbEntity
  8
0
  6
Continuous
 62
     7
370
    15
100
AcDbLine
 10
2188.3767938153
 20
4119.117509423
 30
0.0
 11
2204.6402497826
 21
4119.117509423
 31
0.0
  0
LINE
  5
1D5
330
1F
100
AcDbEntity
  8
0
  6
Continuous
 62
     7
370
    15
100
AcDbLine
 10
2216.5024251445
 20
3719.117509423
 30
0.0
 11
2214.0696140813
 21
3719.117509423
 31
0.0
  0
LINE
  5
1D6
330
1F
100
AcDbEntity
  8
0
  6
Continuous
 62
     7
370
    15
100
AcDbLine
 10
2214.0219626582
 20
3699.117509423
 30
0.0
 11
2216.5024251445
 21
3699.117509423
 31
0.0
  0
ARC
  5
1D7
330
1F
100
AcDbEntity
  8
0
  6
Continuous
 62
     7
370
    15
100
AcDbCircle
 10
2216.5024251445
 20
3717.617509423
 30
0.0
 40
1.5
100
AcDbArc
 50
0.0
 51
90.0
  0
ARC
  5
1D8
330
1F
100
AcDbEntity
  8
0
  6
Continuous
 62
     7
370
    15
100
AcDbCircle
 10
2216.5024251445
 20
3700.617509423
 30
0.0
 40
1.500000000000455
100
AcDbArc
 50
270.0
 51
0.0
  0
ARC
  5
1D9
330
1F
100
AcDbEntity
  8
0
  6
Continuous
 62
     7
370
    15
100
AcDbCircle
 10
2135.5024251445
 20
3700.617509423
 30
0.0
 40
1.500000000000455
100
AcDbArc
 50
180.0
 51
270.0
  0
ARC
  5
1DA
330
1F
100
AcDbEntity
  8
0
  6
Continuous
 62
     7
370
    15
100
AcDbCircle
 10
2135.5024251445
 20
3717.617509423
 30
0.0
 40
1.5
100
AcDbArc
 50
90.0
 51
180.0
  0
LINE
  5
1DB
330
1F
100
AcDbEntity
  8
0
  6
Continuous
 62
     7
370
    15
100
AcDbLine
 10
2135.5024251445
 20
3699.117509423
 30
0.0
 11
2138.0217469459
 21
3699.117509423
 31
0.0
  0
LINE
  5
1DC
330
1F
100
AcDbEntity
  8
0
  6
Continuous
 62
     7
370
    15
100
AcDbLine
 10
2138.0693983691
 20
3719.117509423
 30
0.0
 11
2135.5024251445
 21
3719.117509423
 31
0.0
  0
LINE
  5
1DD
330
1F
100
AcDbEntity
  8
0
  6
Continuous
 62
     7
370
    15
100
AcDbLine
 10
2158.5024251445
 20
4342.8582920757
 30
0.0
 11
2158.5024251445
 21
4139.117509423
 31
0.0
  0
LINE
  5
1DE
330
1F
100
AcDbEntity
  8
0
  6
Continuous
 62
     7
370
    15
100
AcDbLine
 10
2158.5024251445
 20
4119.117509423
 30
0.0
 11
2158.5024251445
 21
3924.4448382328
 31
0.0
  0
LINE
  5
1DF
330
1F
100
AcDbEntity
  8
0
  6
Continuous
 62
     7
370
    15
100
AcDbLine
 10
2193.5024251445
 20
3924.648844865
 30
0.0
 11
2193.5024251445
 21
4119.117509423
 31
0.0
  0
LINE
  5
1E0
330
1F
100
AcDbEntity
  8
0
  6
Continuous
 62
     7
370
    15
100
AcDbLine
 10
2193.5024251445
 20
4139.117509423
 30
0.0
 11
2193.5024251445
 21
4342.8582920757
 31
0.0
  0
SPLINE
  5
1E1
330
1F
100
AcDbEntity
  8
0
  6
Continuous
 62
     7
370
    15
100
AcDbSpline
210
0.0
220
0.0
230
1.0
 70
     8
 71
     3
 72
    17
 73
    13
 74
     0
 42
0.00000001
 43
0.00000001
 40
0.0
 40
0.0
 40
0.0
 40
0.0
 40
0.1049071627103527
 40
0.2097331214562497
 40
0.3166876421537331
 40
0.4253808228550505
 40
0.5316663943191556
 40
0.6351137791231793
 40
0.7397257681244217
 40
0.8476308044057662
 40
0.9559422633617004
 40
1.0
 40
1.0
 40
1.0
 40
1.0
 10
2223.902425144501
 20
3701.117509423001
 30
0.0
 10
2223.924846509242
 20
3701.123545325664
 30
0.0
 10
2223.969671883343
 20
3701.135612458866
 30
0.0
 10
2224.318155092534
 20
3701.220257452893
 30
0.0
 10
2224.837286541478
 20
3701.318080632275
 30
0.0
 10
2225.497766594093
 20
3701.39232056603
 30
0.0
 10
2226.210404562163
 20
3701.405925323798
 30
0.0
 10
2226.887666816557
 20
3701.356065851843
 30
0.0
 10
2227.473103167719
 20
3701.264442855963
 30
0.0
 10
2227.892543181611
 20
3701.172268214495
 30
0.0
 10
2228.104394721332
 20
3701.117015144389
 30
0.0
 10
2228.081054353661
 20
3701.123084677478
 30
0.0
 10
2228.074305458205
 20
3701.124839690289
 30
0.0
  0
ARC
  5
1E2
330
1F
100
AcDbEntity
  8
0
  6
Continuous
 62
     7
370
    15
100
AcDbCircle
 10
2226.0021673552
 20
3724.9690171307
 30
0.0
 40
8.12742829163452
100
AcDbArc
 50
255.0276664593
 51
284.7709888641
  0
SPLINE
  5
1E3
330
1F
100
AcDbEntity
  8
0
  6
Continuous
 62
     7
370
    15
100
AcDbSpline
210
0.0
220
0.0
230
1.0
 70
     8
 71
     3
 72
    17
 73
    13
 74
     0
 42
0.00000001
 43
0.00000001
 40
0.0
 40
0.0
 40
0.0
 40
0.0
 40
0.1049071627103559
 40
0.2097331214562485
 40
0.3166876421537232
 40
0.4253808228550418
 40
0.5316663943191634
 40
0.6351137791231705
 40
0.7397257681244215
 40
0.8476308044057635
 40
0.9559422633616997
 40
1.0
 40
1.0
 40
1.0
 40
1.0
 10
2807.902425144501
 20
3701.117509423001
 30
0.0
 10
2807.924846509242
 20
3701.123545325664
 30
0.0
 10
2807.969671883343
 20
3701.135612458866
 30
0.0
 10
2808.318155092533
 20
3701.220257452893
 30
0.0
 10
2808.837286541478
 20
3701.318080632275
 30
0.0
 10
2809.497766594093
 20
3701.39232056603
 30
0.0
 10
2810.210404562163
 20
3701.405925323798
 30
0.0
 10
2810.887666816557
 20
3701.356065851843
 30
0.0
 10
2811.473103167719
 20
3701.264442855963
 30
0.0
 10
2811.892543181611
 20
3701.172268214495
 30
0.0
 10
2812.104394721332
 20
3701.117015144389
 30
0.0
 10
2812.081054353661
 20
3701.123084677478
 30
0.0
 10
2812.074305458205
 20
3701.12483969029
 30
0.0
  0
ARC
  5
1E4
330
1F
100
AcDbEntity
  8
0
  6
Continuous
 62
     7
370
    15
100
AcDbCircle
 10
2810.0021673552
 20
3724.9690171307
 30
0.0
 40
8.127428291633217
100
AcDbArc
 50
255.0276664593
 51
284.7709888641
  0
ARC
  5
1E5
330
1F
100
AcDbEntity
  8
0
  6
Continuous
 62
     7
370
    15
100
AcDbCircle
 10
2126.0026829339
 20
3693.2660017153
 30
0.0
 40
8.127428291637596
100
AcDbArc
 50
75.0276664594
 51
104.7709888641
  0
SPLINE
  5
1E6
330
1F
100
AcDbEntity
  8
0
  6
Continuous
 62
     7
370
    15
100
AcDbSpline
210
0.0
220
0.0
230
1.0
 70
     8
 71
     3
 72
    17
 73
    13
 74
     0
 42
0.00000001
 43
0.00000001
 40
0.0
 40
0.0
 40
0.0
 40
0.0
 40
0.1049071627103538
 40
0.2097331214562518
 40
0.316687642153728
 40
0.4253808228550479
 40
0.5316663943191531
 40
0.6351137791231761
 40
0.7397257681244261
 40
0.8476308044057672
 40
0.9559422633617004
 40
1.0
 40
1.0
 40
1.0
 40
1.0
 10
2128.102425144501
 20
3717.117509423001
 30
0.0
 10
2128.080003779761
 20
3717.111473520338
 30
0.0
 10
2128.03517840566
 20
3717.099406387135
 30
0.0
 10
2127.686695196469
 20
3717.014761393108
 30
0.0
 10
2127.167563747525
 20
3716.916938213726
 30
0.0
 10
2126.507083694909
 20
3716.842698279971
 30
0.0
 10
2125.79444572684
 20
3716.829093522203
 30
0.0
 10
2125.117183472446
 20
3716.878952994158
 30
0.0
 10
2124.531747121284
 20
3716.970575990038
 30
0.0
 10
2124.112307107391
 20
3717.062750631506
 30
0.0
 10
2123.900455567671
 20
3717.118003701612
 30
0.0
 10
2123.923795935341
 20
3717.111934168523
 30
0.0
 10
2123.930544830798
 20
3717.110179155712
 30
0.0
  0
ARC
  5
1E7
330
1F
100
AcDbEntity
  8
0
  6
Continuous
 62
     7
370
    15
100
AcDbCircle
 10
1542.0026829339
 20
3693.2660017153
 30
0.0
 40
8.127428291576244
100
AcDbArc
 50
75.0276664592
 51
104.7709888642
  0
SPLINE
  5
1E8
330
1F
100
AcDbEntity
  8
0
  6
Continuous
 62
     7
370
    15
100
AcDbSpline
210
0.0
220
0.0
230
1.0
 70
     8
 71
     3
 72
    17
 73
    13
 74
     0
 42
0.00000001
 43
0.00000001
 40
0.0
 40
0.0
 40
0.0
 40
0.0
 40
0.1049071627103556
 40
0.2097331214562493
 40
0.3166876421537275
 40
0.4253808228550455
 40
0.5316663943191505
 40
0.6351137791231733
 40
0.7397257681244213
 40
0.8476308044057641
 40
0.9559422633616995
 40
1.0
 40
1.0
 40
1.0
 40
1.0
 10
1544.102425144501
 20
3717.117509423001
 30
0.0
 10
1544.080003779761
 20
3717.111473520338
 30
0.0
 10
1544.03517840566
 20
3717.099406387135
 30
0.0
 10
1543.68669519647
 20
3717.014761393108
 30
0.0
 10
1543.167563747525
 20
3716.916938213726
 30
0.0
 10
1542.50708369491
 20
3716.842698279971
 30
0.0
 10
1541.79444572684
 20
3716.829093522203
 30
0.0
 10
1541.117183472446
 20
3716.878952994159
 30
0.0
 10
1540.531747121284
 20
3716.970575990038
 30
0.0
 10
1540.112307107391
 20
3717.062750631506
 30
0.0
 10
1539.90045556767
 20
3717.118003701612
 30
0.0
 10
1539.923795935341
 20
3717.111934168523
 30
0.0
 10
1539.930544830798
 20
3717.110179155712
 30
0.0
  0
LINE
  5
1E9
330
1F
100
AcDbEntity
  8
0
  6
Continuous
 62
     7
370
    15
100
AcDbLine
 10
2158.5024251445
 20
4925.117509423
 30
0.0
 11
2193.5024251445
 21
4925.117509423
 31
0.0
  0
LINE
  5
1EC
330
1F
100
AcDbEntity
  8
0
  6
Continuous
 62
     7
370
    15
100
AcDbLine
 10
2193.5024251445
 20
4924.117509423
 30
0.0
 11
2158.5024251445
 21
4924.117509423
 31
0.0
  0
SPLINE
  5
1ED
330
1F
100
AcDbEntity
  8
0
  6
Continuous
 62
     7
370
    15
100
AcDbSpline
210
0.0
220
0.0
230
1.0
 70
     8
 71
     3
 72
    23
 73
    19
 74
     0
 42
0.00000001
 43
0.00000001
 40
0.0
 40
0.0
 40
0.0
 40
0.0
 40
0.060347646474753
 40
0.1221995689958109
 40
0.1826212425002494
 40
0.2452279244210354
 40
0.2991787967530348
 40
0.3548746730329335
 40
0.4063399115260115
 40
0.4590445793589696
 40
0.5159261632962726
 40
0.5740127516996091
 40
0.6409159440588019
 40
0.7092733286645704
 40
0.7866726953474649
 40
0.8660092459347088
 40
0.9491081231956773
 40
1.0
 40
1.0
 40
1.0
 40
1.0
 10
2169.159783043326
 20
4955.87922139512
 30
0.0
 10
2168.884093495959
 20
4955.762490961788
 30
0.0
 10
2168.325842332363
 20
4955.526120374449
 30
0.0
 10
2167.507665747351
 20
4955.245937352503
 30
0.0
 10
2166.720083474779
 20
4955.040203290432
 30
0.0
 10
2166.032489768532
 20
4954.939431186407
 30
0.0
 10
2165.452998670515
 20
4954.939178188972
 30
0.0
 10
2165.006494694941
 20
4955.02511011692
 30
0.0
 10
2164.666620653435
 20
4955.186562131479
 30
0.0
 10
2164.427612228617
 20
4955.413115767004
 30
0.0
 10
2164.290022962933
 20
4955.705700522347
 30
0.0
 10
2164.261409499594
 20
4956.07206005051
 30
0.0
 10
2164.361873852654
 20
4956.50281897333
 30
0.0
 10
2164.617208772229
 20
4957.008120683975
 30
0.0
 10
2165.039081767117
 20
4957.563758063002
 30
0.0
 10
2165.654853773035
 20
4958.160870558258
 30
0.0
 10
2166.318681353918
 20
4958.689500772258
 30
0.0
 10
2166.832503780678
 20
4959.002145827008
 30
0.0
 10
2167.027661930391
 20
4959.120893525092
 30
0.0
  0
SPLINE
  5
1EE
330
1F
100
AcDbEntity
  8
0
  6
Continuous
 62
     7
370
    15
100
AcDbSpline
210
0.0
220
0.0
230
1.0
 70
     8
 71
     3
 72
    24
 73
    20
 74
     0
 42
0.00000001
 43
0.00000001
 40
0.0
 40
0.0
 40
0.0
 40
0.0
 40
0.0319275261318472
 40
0.0850256301980872
 40
0.1397879424496183
 40
0.190964502776825
 40
0.2435784386070806
 40
0.2957340230286528
 40
0.3492322505794327
 40
0.404780806338939
 40
0.4616828233821877
 40
0.5224905937506664
 40
0.5847563117126554
 40
0.6517963262520299
 40
0.7205014207087783
 40
0.7929501036330927
 40
0.8674119527890092
 40
0.9328391243157245
 40
1.0
 40
1.0
 40
1.0
 40
1.0
 10
2173.027661930391
 20
4961.349627202952
 30
0.0
 10
2173.182515926925
 20
4961.375368528667
 30
0.0
 10
2173.594904866475
 20
4961.443919797939
 30
0.0
 10
2174.181324942989
 20
4961.479288129241
 30
0.0
 10
2174.759171262971
 20
4961.465461473507
 30
0.0
 10
2175.213511678029
 20
4961.3838467978
 30
0.0
 10
2175.53763063498
 20
4961.244799794228
 30
0.0
 10
2175.734540296231
 20
4961.046701112131
 30
0.0
 10
2175.800334599242
 20
4960.792283198991
 30
0.0
 10
2175.73000293538
 20
4960.481140125556
 30
0.0
 10
2175.517767889963
 20
4960.111207220683
 30
0.0
 10
2175.15987509833
 20
4959.686418227714
 30
0.0
 10
2174.647645759061
 20
4959.20278215565
 30
0.0
 10
2173.987064568091
 20
4958.671013613237
 30
0.0
 10
2173.175266163699
 20
4958.093123095517
 30
0.0
 10
2172.232030813682
 20
4957.487197497954
 30
0.0
 10
2171.222294462991
 20
4956.900473094006
 30
0.0
 10
2170.186695003225
 20
4956.349843678818
 30
0.0
 10
2169.505058028932
 20
4956.037457065338
 30
0.0
 10
2169.159783043326
 20
4955.87922139512
 30
0.0
  0
LINE
  5
1EF
330
1F
100
AcDbEntity
  8
0
  6
Continuous
 62
     7
370
    15
100
AcDbLine
 10
2175.0024251445
 20
4961.5889146327
 30
0.0
 11
2177.0024251445
 21
4961.5889146327
 31
0.0
  0
SPLINE
  5
1F1
330
1F
100
AcDbEntity
  8
0
  6
Continuous
 62
     7
370
    15
100
AcDbSpline
210
0.0
220
0.0
230
1.0
 70
     8
 71
     3
 72
    17
 73
    13
 74
     0
 42
0.00000001
 43
0.00000001
 40
0.0
 40
0.0
 40
0.0
 40
0.0
 40
0.1049071627103552
 40
0.2097331214562529
 40
0.3166876421537273
 40
0.4253808228550498
 40
0.5316663943191635
 40
0.6351137791231927
 40
0.7397257681244229
 40
0.8476308044057724
 40
0.9559422633617043
 40
1.0
 40
1.0
 40
1.0
 40
1.0
 10
2223.902425144501
 20
4591.117509423
 30
0.0
 10
2223.924846509242
 20
4591.123545325663
 30
0.0
 10
2223.969671883343
 20
4591.135612458866
 30
0.0
 10
2224.318155092534
 20
4591.220257452893
 30
0.0
 10
2224.837286541478
 20
4591.318080632275
 30
0.0
 10
2225.497766594093
 20
4591.39232056603
 30
0.0
 10
2226.210404562163
 20
4591.405925323798
 30
0.0
 10
2226.887666816558
 20
4591.356065851843
 30
0.0
 10
2227.473103167719
 20
4591.264442855962
 30
0.0
 10
2227.892543181612
 20
4591.172268214495
 30
0.0
 10
2228.104394721332
 20
4591.117015144389
 30
0.0
 10
2228.081054353661
 20
4591.123084677478
 30
0.0
 10
2228.074305458205
 20
4591.124839690288
 30
0.0
  0
ARC
  5
1F2
330
1F
100
AcDbEntity
  8
0
  6
Continuous
 62
     7
370
    15
100
AcDbCircle
 10
2226.0021673551
 20
4614.9690171308
 30
0.0
 40
8.127428291686638
100
AcDbArc
 50
255.0276664595
 51
284.770988864
  0
SPLINE
  5
1F3
330
1F
100
AcDbEntity
  8
0
  6
Continuous
 62
     7
370
    15
100
AcDbSpline
210
0.0
220
0.0
230
1.0
 70
     8
 71
     3
 72
    37
 73
    33
 74
     0
 42
0.00000001
 43
0.00000001
 40
0.0
 40
0.0
 40
0.0
 40
0.0
 40
0.0257652523864783
 40
0.0781914174088547
 40
0.1049131517713306
 40
0.1306774700092212
 40
0.1830541656731678
 40
0.2097205483196463
 40
0.2360081135343598
 40
0.289446998369891
 40
0.3166600633376802
 40
0.3433498016957658
 40
0.3702296290158223
 40
0.3977189228010828
 40
0.42542364562339
 40
0.4515164989098109
 40
0.5046356275508285
 40
0.5317324448531707
 40
0.55715203144492
 40
0.6088428003797324
 40
0.6351688906751537
 40
0.6608884389641306
 40
0.7131541186150013
 40
0.7397536786499184
 40
0.7662673827728972
 40
0.8201842689494236
 40
0.8476544913429569
 40
0.874245493918339
 40
0.9283758278663885
 40
0.9559913007990404
 40
0.9818409672210051
 40
1.0
 40
1.0
 40
1.0
 40
1.0
 10
2482.902425144502
 20
4591.117509423
 30
0.0
 10
2482.903820039532
 20
4591.117875486372
 30
0.0
 10
2482.908053214428
 20
4591.118986401704
 30
0.0
 10
2482.947666273183
 20
4591.12935346654
 30
0.0
 10
2483.013256447579
 20
4591.145947277815
 30
0.0
 10
2483.097017816145
 20
4591.166577143814
 30
0.0
 10
2483.206609105624
 20
4591.192349479536
 30
0.0
 10
2483.340378852382
 20
4591.221385100194
 30
0.0
 10
2483.490607321496
 20
4591.252050693972
 30
0.0
 10
2483.663439102575
 20
4591.283742734144
 30
0.0
 10
2483.855016729261
 20
4591.313706340385
 30
0.0
 10
2484.00754447933
 20
4591.33471670885
 30
0.0
 10
2484.167873071426
 20
4591.353647296954
 30
0.0
 10
2484.336586430039
 20
4591.37003070032
 30
0.0
 10
2484.508887395623
 20
4591.382934773073
 30
0.0
 10
2484.740351836962
 20
4591.395111850736
 30
0.0
 10
2484.975816760327
 20
4591.399596570303
 30
0.0
 10
2485.208834198363
 20
4591.395938692187
 30
0.0
 10
2485.436658708978
 20
4591.387272895831
 30
0.0
 10
2485.657899419643
 20
4591.371569567033
 30
0.0
 10
2485.869428308692
 20
4591.350033528978
 30
0.0
 10
2486.074113798686
 20
4591.325137649539
 30
0.0
 10
2486.265664240706
 20
4591.296246339974
 30
0.0
 10
2486.440424807814
 20
4591.265590051671
 30
0.0
 10
2486.604619818515
 20
4591.234216742436
 30
0.0
 10
2486.74841793094
 20
4591.203471148186
 30
0.0
 10
2486.866775376393
 20
4591.176244766759
 30
0.0
 10
2486.967555468178
 20
4591.152076530031
 30
0.0
 10
2487.041675723314
 20
4591.133299806635
 30
0.0
 10
2487.08316282136
 20
4591.122557141338
 30
0.0
 10
2487.10268418776
 20
4591.117443084075
 30
0.0
 10
2487.097870008654
 20
4591.118703117453
 30
0.0
 10
2487.095883564207
 20
4591.119223037102
 30
0.0
  0
LWPOLYLINE
  5
1F4
330
1F
100
AcDbEntity
  8
0
  6
Continuous
 62
     7
370
    15
100
AcDbPolyline
 90
       11
 70
   128
 43
0.0
 10
1458.1228526537
 20
3628.6852787993
 10
1456.2824226532
 20
3628.679170864
 10
1454.7247446175
 20
3628.672426251
 10
1453.475395577
 20
3628.6651557066
 10
1452.5548898083
 20
3628.6574786129
 10
1451.9783419907
 20
3628.6495210277
 10
1451.7552190234
 20
3628.6414136142
 10
1451.8891845793
 20
3628.6332894959
 10
1452.3780389478
 20
3628.6252820707
 10
1453.2137551537
 20
3628.6175228203
 10
1453.73114407
 20
3628.6139441513
  0
LWPOLYLINE
  5
1F5
330
1F
100
AcDbEntity
  8
0
  6
Continuous
 62
     7
370
    15
100
AcDbPolyline
 90
       23
 70
   128
 43
0.0
 10
1493.273706219
 20
3628.6139441513
 10
1494.0318875787
 20
3628.6194323093
 10
1494.7819554668
 20
3628.6272657434
 10
1495.1826140553
 20
3628.6353147804
 10
1495.2272845413
 20
3628.6434472553
 10
1494.9152334366
 20
3628.6515296332
 10
1494.2515846117
 20
3628.6594292015
 10
1493.247235162
 20
3628.6670162497
 10
1491.9186764777
 20
3628.6741661985
 10
1490.2877234557
 20
3628.680761646
 10
1488.3811562994
 20
3628.6866942952
 10
1486.2302807889
 20
3628.6918667322
 10
1483.8704142407
 20
3628.6961940255
 10
1481.3403055981
 20
3628.6996051213
 10
1478.6814991751
 20
3628.7020440094
 10
1475.9376524997
 20
3628.7034706434
 10
1473.1538194585
 20
3628.7038615979
 10
1470.3757105131
 20
3628.7032104534
 10
1467.6489421354
 20
3628.7015279019
 10
1465.0182877869
 20
3628.6988415706
 10
1462.5269427393
 20
3628.6951955691
 10
1460.2158148093
 20
3628.6906497647
 10
1458.1228526537
 20
3628.6852787993
  0
LINE
  5
1F6
330
1F
100
AcDbEntity
  8
0
  6
Continuous
 62
     7
370
    15
100
AcDbLine
 10
2160.8578938495
 20
3789.6311503834
 30
0.0
 11
2197.9873609551
 21
3789.542686786
 31
0.0
  0
LINE
  5
1F7
330
1F
100
AcDbEntity
  8
0
  6
Continuous
 62
     7
370
    15
100
AcDbLine
 10
2154.4874844216
 20
3789.6463283372
 30
0.0
 11
2160.8578938495
 21
3789.6311503834
 31
0.0
  0
LINE
  5
1F8
330
1F
100
AcDbEntity
  8
0
  6
Continuous
 62
     7
370
    15
100
AcDbLine
 10
2548.8264666778
 20
4048.6405099907
 30
0.0
 11
2527.0764666778
 21
4048.6405099907
 31
0.0
  0
LINE
  5
1F9
330
1F
100
AcDbEntity
  8
0
  6
Continuous
 62
     7
370
    15
100
AcDbLine
 10
2570.5764666778
 20
4048.6405099907
 30
0.0
 11
2548.8264666778
 21
4048.6405099907
 31
0.0
  0
LWPOLYLINE
  5
1FA
330
1F
100
AcDbEntity
  8
0
  6
Continuous
 62
     7
370
    15
100
AcDbPolyline
 90
       20
 70
   128
 43
0.0
 10
1458.1228526537
 20
3789.6385922723
 10
1460.2158148093
 20
3789.6439632377
 10
1462.5269427393
 20
3789.6485090421
 10
1465.0182877869
 20
3789.6521550436
 10
1467.6489421354
 20
3789.6548413748
 10
1470.3757105131
 20
3789.6565239264
 10
1473.1538194585
 20
3789.6571750708
 10
1475.9376524997
 20
3789.6567841163
 10
1478.6814991751
 20
3789.6553574824
 10
1481.3403055981
 20
3789.6529185943
 10
1483.8704142407
 20
3789.6495074985
 10
1486.2302807889
 20
3789.6451802051
 10
1488.3811562994
 20
3789.6400077682
 10
1490.2877234557
 20
3789.634075119
 10
1491.9186764777
 20
3789.6274796714
 10
1493.247235162
 20
3789.6203297226
 10
1494.2515846117
 20
3789.6127426745
 10
1494.9152334366
 20
3789.6048431061
 10
1495.2272845413
 20
3789.5967607283
 10
1495.2524251445
 20
3789.5937097438
  0
ARC
  5
1FB
330
1F
100
AcDbEntity
  8
0
  6
Continuous
 62
     7
370
    15
100
AcDbCircle
 10
1457.3265527135
 20
3450.5442934664
 30
0.0
 40
339.0952337858034
100
AcDbArc
 50
89.8654517575
 51
90.9418839824
  0
LINE
  5
1FC
330
1F
100
AcDbEntity
  8
0
  6
Continuous
 62
     7
370
    15
100
AcDbLine
 10
1803.0035980686
 20
4209.5945088553
 30
0.0
 11
1824.7535980686
 21
4209.5945088553
 31
0.0
  0
LINE
  5
1FD
330
1F
100
AcDbEntity
  8
0
  6
Continuous
 62
     7
370
    15
100
AcDbLine
 10
1781.2535980686
 20
4209.5945088553
 30
0.0
 11
1803.0035980686
 21
4209.5945088553
 31
0.0
  0
LINE
  5
1FE
330
1F
100
AcDbEntity
  8
0
  6
Continuous
 62
     7
370
    15
100
AcDbLine
 10
2160.4744105824
 20
3628.6776083563
 30
0.0
 11
2154.1040011545
 21
3628.69278631
 31
0.0
  0
LINE
  5
1FF
330
1F
100
AcDbEntity
  8
0
  6
Continuous
 62
     7
370
    15
100
AcDbLine
 10
2197.603877688
 20
3628.5891447588
 30
0.0
 11
2160.4744105824
 21
3628.6776083563
 31
0.0
  0
LINE
  5
200
330
1F
100
AcDbEntity
  8
0
  6
Continuous
 62
     7
370
    15
100
AcDbLine
 10
2548.8264666778
 20
4209.5945088553
 30
0.0
 11
2570.5764666778
 21
4209.5945088553
 31
0.0
  0
LINE
  5
201
330
1F
100
AcDbEntity
  8
0
  6
Continuous
 62
     7
370
    15
100
AcDbLine
 10
2527.0764666778
 20
4209.5945088553
 30
0.0
 11
2548.8264666778
 21
4209.5945088553
 31
0.0
  0
LINE
  5
202
330
1F
100
AcDbEntity
  8
0
  6
Continuous
 62
     7
370
    15
100
AcDbLine
 10
2154.0174893339
 20
3789.542686786
 30
0.0
 11
2154.4872401548
 21
3789.5438060007
 31
0.0
  0
LINE
  5
203
330
1F
100
AcDbEntity
  8
0
  6
Continuous
 62
     7
370
    15
100
AcDbLine
 10
2196.2441333787
 20
3789.6432947702
 30
0.0
 11
2197.5173658674
 21
3789.6463283372
 31
0.0
  0
LINE
  5
204
330
1F
100
AcDbEntity
  8
0
  6
Continuous
 62
     7
370
    15
100
AcDbLine
 10
2160.6228526537
 20
4518.6405099907
 30
0.0
 11
2154.2524251445
 21
4518.6405099907
 31
0.0
  0
LINE
  5
205
330
1F
100
AcDbEntity
  8
0
  6
Continuous
 62
     7
370
    15
100
AcDbLine
 10
2197.7524251445
 20
4518.6405099907
 30
0.0
 11
2160.6228526537
 21
4518.6405099907
 31
0.0
  0
LWPOLYLINE
  5
206
330
1F
100
AcDbEntity
  8
0
  6
Continuous
 62
     7
370
    15
100
AcDbPolyline
 90
       30
 70
   128
 43
0.0
 10
2857.3730715483
 20
3789.6087646928
 10
2857.0896168524
 20
3789.6048431061
 10
2856.7775657477
 20
3789.5967607283
 10
2856.8222362337
 20
3789.5886282534
 10
2857.2228948222
 20
3789.5805792164
 10
2857.9729627103
 20
3789.5727457823
 10
2859.060123804
 20
3789.5652565759
 10
2860.4665269482
 20
3789.5582345697
 10
2862.1690790421
 20
3789.5517950649
 10
2864.1398242275
 20
3789.5460437979
 10
2866.3464029229
 20
3789.5410752045
 10
2868.7525831671
 20
3789.5369708688
 10
2871.318855547
 20
3789.5337981838
 10
2874.0030819411
 20
3789.531609245
 10
2876.7611874262
 20
3789.5304399946
 10
2879.5478839865
 20
3789.5303096318
 10
2882.3174141415
 20
3789.5312202971
 10
2885.0243022826
 20
3789.5331570373
 10
2887.6241013815
 20
3789.5360880514
 10
2890.0741228087
 20
3789.539965212
 10
2892.3341372802
 20
3789.5447248563
 10
2894.3670354208
 20
3789.5502888312
 10
2896.1394370993
 20
3789.5565657762
 10
2897.6222395291
 20
3789.5634526242
 10
2898.7910951353
 20
3789.5708362932
 10
2899.6268113412
 20
3789.5785955437
 10
2900.1156657097
 20
3789.5866029689
 10
2900.2496312656
 20
3789.5947270871
 10
2900.0265082983
 20
3789.6028345006
 10
2899.6317787407
 20
3789.6087646928
  0
LINE
  5
207
330
1F
100
AcDbEntity
  8
0
  6
Continuous
 62
     7
370
    15
100
AcDbLine
 10
1783.1228526537
 20
4679.594178671
 30
0.0
 11
1820.2524251445
 21
4679.594178671
 31
0.0
  0
LINE
  5
208
330
1F
100
AcDbEntity
  8
0
  6
Continuous
 62
     7
370
    15
100
AcDbLine
 10
1776.7524251445
 20
4679.594178671
 30
0.0
 11
1783.1228526537
 21
4679.594178671
 31
0.0
  0
LINE
  5
209
330
1F
100
AcDbEntity
  8
0
  6
Continuous
 62
     7
370
    15
100
AcDbLine
 10
1803.0035980686
 20
4048.6405099907
 30
0.0
 11
1781.2535980686
 21
4048.6405099907
 31
0.0
  0
LINE
  5
20A
330
1F
100
AcDbEntity
  8
0
  6
Continuous
 62
     7
370
    15
100
AcDbLine
 10
1824.7535980686
 20
4048.6405099907
 30
0.0
 11
1803.0035980686
 21
4048.6405099907
 31
0.0
  0
LINE
  5
20B
330
1F
100
AcDbEntity
  8
0
  6
Continuous
 62
     7
370
    15
100
AcDbLine
 10
2160.6228526537
 20
4679.5945088553
 30
0.0
 11
2197.7524251445
 21
4679.5945088553
 31
0.0
  0
LINE
  5
20C
330
1F
100
AcDbEntity
  8
0
  6
Continuous
 62
     7
370
    15
100
AcDbLine
 10
2154.2524251445
 20
4679.5945088553
 30
0.0
 11
2160.6228526537
 21
4679.5945088553
 31
0.0
  0
LINE
  5
20D
330
1F
100
AcDbEntity
  8
0
  6
Continuous
 62
     7
370
    15
100
AcDbLine
 10
2570.5764666778
 20
4209.5945088553
 30
0.0
 11
2570.7512522204
 21
4209.5945088553
 31
0.0
  0
LINE
  5
20E
330
1F
100
AcDbEntity
  8
0
  6
Continuous
 62
     7
370
    15
100
AcDbLine
 10
1783.1228526537
 20
4518.6401798064
 30
0.0
 11
1776.7524251445
 21
4518.6401798064
 31
0.0
  0
LINE
  5
20F
330
1F
100
AcDbEntity
  8
0
  6
Continuous
 62
     7
370
    15
100
AcDbLine
 10
1820.2524251445
 20
4518.6401798064
 30
0.0
 11
1783.1228526537
 21
4518.6401798064
 31
0.0
  0
LINE
  5
210
330
1F
100
AcDbEntity
  8
0
  6
Continuous
 62
     7
370
    15
100
AcDbLine
 10
2531.7524251445
 20
4679.594178671
 30
0.0
 11
2575.2524251445
 21
4679.594178671
 31
0.0
  0
LWPOLYLINE
  5
211
330
1F
100
AcDbEntity
  8
0
  6
Continuous
 62
     7
370
    15
100
AcDbPolyline
 90
       26
 70
   128
 43
0.0
 10
2900.2524251445
 20
3628.6403962709
 10
2900.1156657097
 20
3628.6332894959
 10
2899.6268113412
 20
3628.6252820707
 10
2898.7910951353
 20
3628.6175228203
 10
2897.6222395291
 20
3628.6101391512
 10
2896.1394370993
 20
3628.6032523033
 10
2894.3670354208
 20
3628.5969753582
 10
2892.3341372802
 20
3628.5914113834
 10
2890.0741228087
 20
3628.586651739
 10
2887.6241013815
 20
3628.5827745784
 10
2885.0243022826
 20
3628.5798435644
 10
2882.3174141415
 20
3628.5779068241
 10
2879.5478839865
 20
3628.5769961589
 10
2876.7611874262
 20
3628.5771265217
 10
2874.0030819411
 20
3628.578295772
 10
2871.318855547
 20
3628.5804847108
 10
2868.7525831671
 20
3628.5836573958
 10
2866.3464029229
 20
3628.5877617316
 10
2864.1398242275
 20
3628.592730325
 10
2862.1690790421
 20
3628.5984815919
 10
2860.4665269482
 20
3628.6049210967
 10
2859.060123804
 20
3628.6119431029
 10
2857.9729627103
 20
3628.6194323093
 10
2857.2228948222
 20
3628.6272657434
 10
2856.8222362337
 20
3628.6353147804
 10
2856.7524251445
 20
3628.6403962709
  0
LINE
  5
212
330
1F
100
AcDbEntity
  8
0
  6
Continuous
 62
     7
370
    15
100
AcDbLine
 10
1824.7535980686
 20
4209.5945088553
 30
0.0
 11
1824.9283836112
 21
4209.5945088553
 31
0.0
  0
LINE
  5
213
330
1F
100
AcDbEntity
  8
0
  6
Continuous
 62
     7
370
    15
100
AcDbLine
 10
2197.9008491345
 20
3628.69278631
 30
0.0
 11
2197.6041229369
 21
3628.6920793388
 31
0.0
  0
LINE
  5
214
330
1F
100
AcDbEntity
  8
0
  6
Continuous
 62
     7
370
    15
100
AcDbLine
 10
2570.7512522204
 20
4048.6405099907
 30
0.0
 11
2570.5764666778
 21
4048.6405099907
 31
0.0
  0
LINE
  5
215
330
1F
100
AcDbEntity
  8
0
  6
Continuous
 62
     7
370
    15
100
AcDbLine
 10
2575.2524251445
 20
4518.6401798064
 30
0.0
 11
2531.7524251445
 21
4518.6401798064
 31
0.0
  0
LINE
  5
216
330
1F
100
AcDbEntity
  8
0
  6
Continuous
 62
     7
370
    15
100
AcDbLine
 10
1824.9283836112
 20
4048.6405099907
 30
0.0
 11
1824.7535980686
 21
4048.6405099907
 31
0.0
  0
LWPOLYLINE
  5
217
330
1F
100
AcDbEntity
  8
0
  6
Continuous
 62
     7
370
    15
100
AcDbPolyline
 90
       27
 70
   128
 43
0.0
 10
1451.0024251445
 20
3789.093711873
 10
1451.1022809409
 20
3789.0998912339
 10
1451.5442980009
 20
3789.1080356427
 10
1452.332607843
 20
3789.1159541572
 10
1453.4547783503
 20
3789.1235218976
 10
1454.8931122233
 20
3789.130619516
 10
1456.6249260778
 20
3789.1371350789
 10
1458.6229081747
 20
3789.1429658319
 10
1460.8555491428
 20
3789.1480198205
 10
1463.2876389004
 20
3789.1522173404
 10
1465.880821939
 20
3789.1554921941
 10
1468.5942022131
 20
3789.1577927352
 10
1471.3849880948
 20
3789.1590826828
 10
1474.2091672238
 20
3789.1593416938
 10
1477.0222006079
 20
3789.1585656832
 10
1479.7797250304
 20
3789.1567668893
 10
1482.4382526838
 20
3789.1539736801
 10
1484.9558569989
 20
3789.1502301063
 10
1487.2928338517
 20
3789.1455952061
 10
1489.4123277212
 20
3789.1401420748
 10
1491.280912923
 20
3789.1339567115
 10
1492.8691207521
 20
3789.127136663
 10
1494.1519042224
 20
3789.1197894856
 10
1495.1090330722
 20
3789.1120310487
 10
1495.7254128079
 20
3789.1039837074
 10
1495.9913227527
 20
3789.0957743732
 10
1496.0024251445
 20
3789.093711873
  0
LWPOLYLINE
  5
218
330
1F
100
AcDbEntity
  8
0
  6
Continuous
 62
     7
370
    15
100
AcDbPolyline
 90
       36
 70
   128
 43
0.0
 10
1454.2090122795
 20
3775.0599876897
 10
1454.1357295369
 20
3775.0603466993
 10
1452.8529460666
 20
3775.0676938767
 10
1451.8958172168
 20
3775.0754523136
 10
1451.2794374811
 20
3775.0834996549
 10
1451.0135275363
 20
3775.0917089891
 10
1451.1022809409
 20
3775.0999508502
 10
1451.5442980009
 20
3775.1080952591
 10
1452.332607843
 20
3775.1160137735
 10
1453.4547783503
 20
3775.1235815139
 10
1454.8931122233
 20
3775.1306791323
 10
1456.6249260778
 20
3775.1371946952
 10
1458.6229081747
 20
3775.1430254482
 10
1460.8555491428
 20
3775.1480794368
 10
1463.2876389004
 20
3775.1522769567
 10
1465.880821939
 20
3775.1555518104
 10
1468.5942022131
 20
3775.1578523515
 10
1471.3849880948
 20
3775.1591422991
 10
1474.2091672238
 20
3775.1594013101
 10
1477.0222006079
 20
3775.1586252995
 10
1479.7797250304
 20
3775.1568265056
 10
1482.4382526838
 20
3775.1540332965
 10
1484.9558569989
 20
3775.1502897226
 10
1487.2928338517
 20
3775.1456548224
 10
1489.4123277212
 20
3775.1402016911
 10
1491.280912923
 20
3775.1340163278
 10
1492.8691207521
 20
3775.1271962793
 10
1494.1519042224
 20
3775.1198491019
 10
1495.1090330722
 20
3775.112090665
 10
1495.7254128079
 20
3775.1040433237
 10
1495.9913227527
 20
3775.0958339895
 10
1495.9025693481
 20
3775.0875921284
 10
1495.4605522881
 20
3775.0794477196
 10
1494.672242446
 20
3775.0715292051
 10
1493.5500719387
 20
3775.0639614647
 10
1492.9051141217
 20
3775.060524953
  0
LWPOLYLINE
  5
219
330
1F
100
AcDbEntity
  8
0
  6
Continuous
 62
     7
370
    15
100
AcDbPolyline
 90
       22
 70
   128
 43
0.0
 10
1458.6531827396
 20
3775.1371063443
 10
1460.7184351353
 20
3775.1423919423
 10
1463.0024251445
 20
3775.1468456307
 10
1465.4660730648
 20
3775.150391206
 10
1468.0672251973
 20
3775.1529680021
 10
1470.7613751079
 20
3775.1545319296
 10
1473.5024251445
 20
3775.155056229
 10
1476.2434751811
 20
3775.1545319296
 10
1478.9376250917
 20
3775.1529680021
 10
1481.5387772242
 20
3775.150391206
 10
1484.0024251445
 20
3775.1468456307
 10
1486.2864151537
 20
3775.1423919423
 10
1488.3516675494
 20
3775.1371063443
 10
1490.1628452906
 20
3775.131079275
 10
1491.688958624
 20
3775.1244138592
 10
1492.9038953272
 20
3775.1172241438
 10
1493.7868674966
 20
3775.1096331471
 10
1494.3227672334
 20
3775.101770753
 10
1494.5024251445
 20
3775.0937714893
 10
1494.3227672334
 20
3775.0857722256
 10
1493.7868674966
 20
3775.0779098315
 10
1492.9669930015
 20
3775.0707684184
  0
LWPOLYLINE
  5
21A
330
1F
100
AcDbEntity
  8
0
  6
Continuous
 62
     7
370
    15
100
AcDbPolyline
 90
       11
 70
   128
 43
0.0
 10
1454.1216353629
 20
3775.070173659
 10
1454.1009549618
 20
3775.0703188348
 10
1453.2179827924
 20
3775.0779098315
 10
1452.6820830557
 20
3775.0857722256
 10
1452.5024251445
 20
3775.0937714893
 10
1452.6820830557
 20
3775.101770753
 10
1453.2179827924
 20
3775.1096331471
 10
1454.1009549618
 20
3775.1172241438
 10
1455.315891665
 20
3775.1244138592
 10
1456.8420049984
 20
3775.131079275
 10
1458.6531827396
 20
3775.1371063443
  0
LINE
  5
21B
330
1F
100
AcDbEntity
  8
0
  6
Continuous
 62
     7
370
    15
100
AcDbLine
 10
1825.5035980686
 20
4209.0945088553
 30
0.0
 11
1825.6783836112
 21
4209.0945088553
 31
0.0
  0
LINE
  5
21C
330
1F
100
AcDbEntity
  8
0
  6
Continuous
 62
     7
370
    15
100
AcDbLine
 10
1825.5035980686
 20
4195.0945088553
 30
0.0
 11
1825.6783836112
 21
4195.0945088553
 31
0.0
  0
LINE
  5
21D
330
1F
100
AcDbEntity
  8
0
  6
Continuous
 62
     7
370
    15
100
AcDbLine
 10
1825.5035980686
 20
4049.1405099907
 30
0.0
 11
1780.5035980686
 21
4049.1405099907
 31
0.0
  0
LINE
  5
21E
330
1F
100
AcDbEntity
  8
0
  6
Continuous
 62
     7
370
    15
100
AcDbLine
 10
1825.5035980686
 20
4063.1405099907
 30
0.0
 11
1780.5035980686
 21
4063.1405099907
 31
0.0
  0
LINE
  5
21F
330
1F
100
AcDbEntity
  8
0
  6
Continuous
 62
     7
370
    15
100
AcDbLine
 10
2569.4123277212
 20
4679.094178671
 30
0.0
 11
2576.0024251445
 21
4679.094178671
 31
0.0
  0
LINE
  5
220
330
1F
100
AcDbEntity
  8
0
  6
Continuous
 62
     7
370
    15
100
AcDbLine
 10
2531.0024251445
 20
4679.094178671
 30
0.0
 11
2569.4123277212
 21
4679.094178671
 31
0.0
  0
LINE
  5
221
330
1F
100
AcDbEntity
  8
0
  6
Continuous
 62
     7
370
    15
100
AcDbLine
 10
2569.4123277212
 20
4665.094178671
 30
0.0
 11
2576.0024251445
 21
4665.094178671
 31
0.0
  0
LINE
  5
222
330
1F
100
AcDbEntity
  8
0
  6
Continuous
 62
     7
370
    15
100
AcDbLine
 10
2531.0024251445
 20
4665.094178671
 30
0.0
 11
2569.4123277212
 21
4665.094178671
 31
0.0
  0
LINE
  5
223
330
1F
100
AcDbEntity
  8
0
  6
Continuous
 62
     7
370
    15
100
AcDbLine
 10
2576.0024251445
 20
4519.1401798064
 30
0.0
 11
2531.0024251445
 21
4519.1401798064
 31
0.0
  0
LINE
  5
224
330
1F
100
AcDbEntity
  8
0
  6
Continuous
 62
     7
370
    15
100
AcDbLine
 10
2576.0024251445
 20
4533.1401798064
 30
0.0
 11
2531.0024251445
 21
4533.1401798064
 31
0.0
  0
LINE
  5
225
330
1F
100
AcDbEntity
  8
0
  6
Continuous
 62
     7
370
    15
100
AcDbLine
 10
1825.6783836112
 20
4063.1405099907
 30
0.0
 11
1825.5035980686
 21
4063.1405099907
 31
0.0
  0
LINE
  5
226
330
1F
100
AcDbEntity
  8
0
  6
Continuous
 62
     7
370
    15
100
AcDbLine
 10
1825.6783836112
 20
4049.1405099907
 30
0.0
 11
1825.5035980686
 21
4049.1405099907
 31
0.0
  0
LWPOLYLINE
  5
227
330
1F
100
AcDbEntity
  8
0
  6
Continuous
 62
     7
370
    15
100
AcDbPolyline
 90
       10
 70
   128
 43
0.0
 10
2894.4123277212
 20
3789.0472816712
 10
2896.280912923
 20
3789.0534670345
 10
2897.8691207521
 20
3789.060287083
 10
2899.1519042224
 20
3789.0676342604
 10
2900.1090330722
 20
3789.0753926973
 10
2900.7254128079
 20
3789.0834400386
 10
2900.9913227527
 20
3789.0916493728
 10
2900.9025693481
 20
3789.0998912339
 10
2900.4605522881
 20
3789.1080356427
 10
2900.2524251445
 20
3789.1105239093
  0
LWPOLYLINE
  5
228
330
1F
100
AcDbEntity
  8
0
  6
Continuous
 62
     7
370
    15
100
AcDbPolyline
 90
       22
 70
   128
 43
0.0
 10
2856.7524251445
 20
3789.1105239093
 10
2856.2794374811
 20
3789.1039837074
 10
2856.0135275363
 20
3789.0957743732
 10
2856.1022809409
 20
3789.0875325121
 10
2856.5442980009
 20
3789.0793881033
 10
2857.332607843
 20
3789.0714695888
 10
2858.4547783503
 20
3789.0639018484
 10
2859.8931122233
 20
3789.05680423
 10
2861.6249260778
 20
3789.0502886671
 10
2863.6229081747
 20
3789.0444579141
 10
2865.8555491428
 20
3789.0394039255
 10
2868.2876389004
 20
3789.0352064056
 10
2870.880821939
 20
3789.0319315519
 10
2873.5942022131
 20
3789.0296310108
 10
2876.3849880948
 20
3789.0283410632
 10
2879.2091672238
 20
3789.0280820522
 10
2882.0222006079
 20
3789.0288580628
 10
2884.7797250304
 20
3789.0306568567
 10
2887.4382526838
 20
3789.0334500659
 10
2889.9558569989
 20
3789.0371936397
 10
2892.2928338517
 20
3789.0418285399
 10
2894.4123277212
 20
3789.0472816712
  0
ARC
  5
229
330
1F
100
AcDbEntity
  8
0
  6
Continuous
 62
     7
370
    15
100
AcDbCircle
 10
2896.0463756356
 20
4010.8256607866
 30
0.0
 40
235.7839817680457
100
AcDbArc
 50
269.6029212936
 51
271.2044144464
  0
LWPOLYLINE
  5
22A
330
1F
100
AcDbEntity
  8
0
  6
Continuous
 62
     7
370
    15
100
AcDbPolyline
 90
       20
 70
   128
 43
0.0
 10
2856.0024251445
 20
3775.0937714893
 10
2856.1022809409
 20
3775.0875921284
 10
2856.5442980009
 20
3775.0794477196
 10
2857.332607843
 20
3775.0715292051
 10
2858.4547783503
 20
3775.0639614647
 10
2859.8931122233
 20
3775.0568638463
 10
2861.6249260778
 20
3775.0503482834
 10
2863.6229081747
 20
3775.0445175304
 10
2865.8555491428
 20
3775.0394635418
 10
2868.2876389004
 20
3775.0352660219
 10
2870.880821939
 20
3775.0319911682
 10
2873.5942022131
 20
3775.0296906271
 10
2876.3849880948
 20
3775.0284006795
 10
2879.2091672238
 20
3775.0281416686
 10
2882.0222006079
 20
3775.0289176791
 10
2884.7797250304
 20
3775.030716473
 10
2887.4382526838
 20
3775.0335096822
 10
2889.9558569989
 20
3775.037253256
 10
2892.2928338517
 20
3775.0418881562
 10
2894.4123277212
 20
3775.0473412875
  0
LWPOLYLINE
  5
22B
330
1F
100
AcDbEntity
  8
0
  6
Continuous
 62
     7
370
    15
100
AcDbPolyline
 90
        9
 70
   128
 43
0.0
 10
2894.0587743306
 20
3789.0483134535
 10
2895.9203586989
 20
3789.0544915949
 10
2897.4959410798
 20
3789.0613137322
 10
2898.7596504542
 20
3789.0686678461
 10
2899.690736749
 20
3789.0764331822
 10
2900.273911553
 20
3789.084482234
 10
2900.4995991521
 20
3789.0926828361
 10
2900.3640937622
 20
3789.100900335
 10
2900.2524251445
 20
3789.1033633123
  0
LWPOLYLINE
  5
22C
330
1F
100
AcDbEntity
  8
0
  6
Continuous
 62
     7
370
    15
100
AcDbPolyline
 90
       21
 70
   128
 43
0.0
 10
2856.7524251445
 20
3789.1033633123
 10
2856.57303866
 20
3789.0988517714
 10
2856.5278547202
 20
3789.0906258198
 10
2856.8434926192
 20
3789.0824505411
 10
2857.5147695915
 20
3789.0744601731
 10
2858.5306632877
 20
3789.0667859175
 10
2859.8744927615
 20
3789.0595537853
 10
2861.52419237
 20
3789.052882528
 10
2863.4526740913
 20
3789.0468816875
 10
2865.6282723088
 20
3789.0416497972
 10
2868.0152637599
 20
3789.0372727649
 10
2870.574454111
 20
3789.0338224611
 10
2873.2638215273
 20
3789.0313555398
 10
2876.0392066702
 20
3789.0299125077
 10
2878.8550377924
 20
3789.0295170595
 10
2881.6650790246
 20
3789.0301756884
 10
2884.4231895675
 20
3789.0318775796
 10
2887.0840813223
 20
3789.0345947882
 10
2889.6040625199
 20
3789.0382826978
 10
2891.9417551387
 20
3789.0428807528
 10
2894.0587743306
 20
3789.0483134535
  0
LINE
  5
22D
330
1F
100
AcDbEntity
  8
0
  6
Continuous
 62
     7
370
    15
100
AcDbLine
 10
2571.3264666778
 20
4209.0945088553
 30
0.0
 11
2571.5012522204
 21
4209.0945088553
 31
0.0
  0
LINE
  5
22E
330
1F
100
AcDbEntity
  8
0
  6
Continuous
 62
     7
370
    15
100
AcDbLine
 10
2571.3264666778
 20
4195.0945088553
 30
0.0
 11
2571.5012522204
 21
4195.0945088553
 31
0.0
  0
LINE
  5
22F
330
1F
100
AcDbEntity
  8
0
  6
Continuous
 62
     7
370
    15
100
AcDbLine
 10
2571.5012522204
 20
4049.1405099907
 30
0.0
 11
2571.3264666778
 21
4049.1405099907
 31
0.0
  0
LINE
  5
230
330
1F
100
AcDbEntity
  8
0
  6
Continuous
 62
     7
370
    15
100
AcDbLine
 10
2571.5012522204
 20
4063.1405099907
 30
0.0
 11
2571.3264666778
 21
4063.1405099907
 31
0.0
  0
LINE
  5
231
330
1F
100
AcDbEntity
  8
0
  6
Continuous
 62
     7
370
    15
100
AcDbLine
 10
2191.7983440244
 20
3643.1030180115
 30
0.0
 11
2153.3885504669
 21
3643.1945320778
 31
0.0
  0
LINE
  5
232
330
1F
100
AcDbEntity
  8
0
  6
Continuous
 62
     7
370
    15
100
AcDbLine
 10
2198.388422743
 20
3643.08731668
 30
0.0
 11
2191.7983440244
 21
3643.1030180115
 31
0.0
  0
LINE
  5
233
330
1F
100
AcDbEntity
  8
0
  6
Continuous
 62
     7
370
    15
100
AcDbLine
 10
2191.7649881229
 20
3629.1030577478
 30
0.0
 11
2153.3551945654
 21
3629.1945718142
 31
0.0
  0
LINE
  5
234
330
1F
100
AcDbEntity
  8
0
  6
Continuous
 62
     7
370
    15
100
AcDbLine
 10
2198.3550668414
 20
3629.0873564164
 30
0.0
 11
2191.7649881229
 21
3629.1030577478
 31
0.0
  0
LINE
  5
235
330
1F
100
AcDbEntity
  8
0
  6
Continuous
 62
     7
370
    15
100
AcDbLine
 10
2197.9864192621
 20
3789.1474444711
 30
0.0
 11
2198.2685550209
 21
3789.1481166796
 31
0.0
  0
LINE
  5
236
330
1F
100
AcDbEntity
  8
0
  6
Continuous
 62
     7
370
    15
100
AcDbLine
 10
2153.2686827449
 20
3789.0409012818
 30
0.0
 11
2153.7360424728
 21
3789.0420147996
 31
0.0
  0
LINE
  5
237
330
1F
100
AcDbEntity
  8
0
  6
Continuous
 62
     7
370
    15
100
AcDbLine
 10
2153.3020386464
 20
3775.0409410182
 30
0.0
 11
2156.7400134499
 21
3775.0491322378
 31
0.0
  0
LINE
  5
238
330
1F
100
AcDbEntity
  8
0
  6
Continuous
 62
     7
370
    15
100
AcDbLine
 10
2198.6162998221
 20
3643.1945320778
 30
0.0
 11
2195.3967242642
 21
3643.18686121
 31
0.0
  0
LINE
  5
239
330
1F
100
AcDbEntity
  8
0
  6
Continuous
 62
     7
370
    15
100
AcDbLine
 10
2198.6496557236
 20
3629.1945718142
 30
0.0
 11
2198.3553206189
 21
3629.1938705399
 31
0.0
  0
LINE
  5
23A
330
1F
100
AcDbEntity
  8
0
  6
Continuous
 62
     7
370
    15
100
AcDbLine
 10
2154.1049438296
 20
3629.0884408684
 30
0.0
 11
2153.6497834476
 21
3629.0873564164
 31
0.0
  0
LINE
  5
23B
330
1F
100
AcDbEntity
  8
0
  6
Continuous
 62
     7
370
    15
100
AcDbLine
 10
1776.0024251445
 20
4679.094178671
 30
0.0
 11
1821.0024251445
 21
4679.094178671
 31
0.0
  0
LINE
  5
23C
330
1F
100
AcDbEntity
  8
0
  6
Continuous
 62
     7
370
    15
100
AcDbLine
 10
1776.0024251445
 20
4665.094178671
 30
0.0
 11
1821.0024251445
 21
4665.094178671
 31
0.0
  0
LINE
  5
23D
330
1F
100
AcDbEntity
  8
0
  6
Continuous
 62
     7
370
    15
100
AcDbLine
 10
1814.4123277212
 20
4519.1401798064
 30
0.0
 11
1776.0024251445
 21
4519.1401798064
 31
0.0
  0
LINE
  5
23E
330
1F
100
AcDbEntity
  8
0
  6
Continuous
 62
     7
370
    15
100
AcDbLine
 10
1821.0024251445
 20
4519.1401798064
 30
0.0
 11
1814.4123277212
 21
4519.1401798064
 31
0.0
  0
LINE
  5
23F
330
1F
100
AcDbEntity
  8
0
  6
Continuous
 62
     7
370
    15
100
AcDbLine
 10
1814.4123277212
 20
4533.1401798064
 30
0.0
 11
1776.0024251445
 21
4533.1401798064
 31
0.0
  0
LINE
  5
240
330
1F
100
AcDbEntity
  8
0
  6
Continuous
 62
     7
370
    15
100
AcDbLine
 10
1821.0024251445
 20
4533.1401798064
 30
0.0
 11
1814.4123277212
 21
4533.1401798064
 31
0.0
  0
LINE
  5
241
330
1F
100
AcDbEntity
  8
0
  6
Continuous
 62
     7
370
    15
100
AcDbLine
 10
2153.7362952681
 20
3789.1481166796
 30
0.0
 11
2198.7361675441
 21
3789.0409012818
 31
0.0
  0
LINE
  5
242
330
1F
100
AcDbEntity
  8
0
  6
Continuous
 62
     7
370
    15
100
AcDbLine
 10
2153.7029393666
 20
3775.148156416
 30
0.0
 11
2198.7028116426
 21
3775.0409410182
 31
0.0
  0
LINE
  5
243
330
1F
100
AcDbEntity
  8
0
  6
Continuous
 62
     7
370
    15
100
AcDbLine
 10
2191.9123277212
 20
4519.1405099907
 30
0.0
 11
2153.5024251445
 21
4519.1405099907
 31
0.0
  0
LINE
  5
244
330
1F
100
AcDbEntity
  8
0
  6
Continuous
 62
     7
370
    15
100
AcDbLine
 10
2198.5024251445
 20
4519.1405099907
 30
0.0
 11
2191.9123277212
 21
4519.1405099907
 31
0.0
  0
LINE
  5
245
330
1F
100
AcDbEntity
  8
0
  6
Continuous
 62
     7
370
    15
100
AcDbLine
 10
2191.9123277212
 20
4533.1405099907
 30
0.0
 11
2153.5024251445
 21
4533.1405099907
 31
0.0
  0
LINE
  5
246
330
1F
100
AcDbEntity
  8
0
  6
Continuous
 62
     7
370
    15
100
AcDbLine
 10
2198.5024251445
 20
4533.1405099907
 30
0.0
 11
2191.9123277212
 21
4533.1405099907
 31
0.0
  0
LWPOLYLINE
  5
247
330
1F
100
AcDbEntity
  8
0
  6
Continuous
 62
     7
370
    15
100
AcDbPolyline
 90
       27
 70
   128
 43
0.0
 10
2901.0024251445
 20
3629.1403941417
 10
2900.9913227527
 20
3629.1383316415
 10
2900.7254128079
 20
3629.1301223073
 10
2900.1090330722
 20
3629.1220749661
 10
2899.1519042224
 20
3629.1143165291
 10
2897.8691207521
 20
3629.1069693518
 10
2896.280912923
 20
3629.1001493033
 10
2894.4123277212
 20
3629.0939639399
 10
2892.2928338517
 20
3629.0885108086
 10
2889.9558569989
 20
3629.0838759085
 10
2887.4382526838
 20
3629.0801323346
 10
2884.7797250304
 20
3629.0773391254
 10
2882.0222006079
 20
3629.0755403316
 10
2879.2091672238
 20
3629.074764321
 10
2876.3849880948
 20
3629.0750233319
 10
2873.5942022131
 20
3629.0763132796
 10
2870.880821939
 20
3629.0786138207
 10
2868.2876389004
 20
3629.0818886744
 10
2865.8555491428
 20
3629.0860861942
 10
2863.6229081747
 20
3629.0911401828
 10
2861.6249260778
 20
3629.0969709358
 10
2859.8931122233
 20
3629.1034864987
 10
2858.4547783503
 20
3629.1105841172
 10
2857.332607843
 20
3629.1181518575
 10
2856.5442980009
 20
3629.126070372
 10
2856.1022809409
 20
3629.1342147809
 10
2856.0024251445
 20
3629.1403941417
  0
LWPOLYLINE
  5
248
330
1F
100
AcDbEntity
  8
0
  6
Continuous
 62
     7
370
    15
100
AcDbPolyline
 90
       35
 70
   128
 43
0.0
 10
2897.9167823255
 20
3643.1735229993
 10
2898.5500719387
 20
3643.17014455
 10
2899.672242446
 20
3643.1625768097
 10
2900.4605522881
 20
3643.1546582952
 10
2900.9025693481
 20
3643.1465138863
 10
2900.9913227527
 20
3643.1382720252
 10
2900.7254128079
 20
3643.130062691
 10
2900.1090330722
 20
3643.1220153498
 10
2899.1519042224
 20
3643.1142569128
 10
2897.8691207521
 20
3643.1069097355
 10
2896.280912923
 20
3643.100089687
 10
2894.4123277212
 20
3643.0939043236
 10
2892.2928338517
 20
3643.0884511923
 10
2889.9558569989
 20
3643.0838162922
 10
2887.4382526838
 20
3643.0800727183
 10
2884.7797250304
 20
3643.0772795091
 10
2882.0222006079
 20
3643.0754807152
 10
2879.2091672238
 20
3643.0747047047
 10
2876.3849880948
 20
3643.0749637156
 10
2873.5942022131
 20
3643.0762536632
 10
2870.880821939
 20
3643.0785542044
 10
2868.2876389004
 20
3643.081829058
 10
2865.8555491428
 20
3643.0860265779
 10
2863.6229081747
 20
3643.0910805665
 10
2861.6249260778
 20
3643.0969113195
 10
2859.8931122233
 20
3643.1034268824
 10
2858.4547783503
 20
3643.1105245009
 10
2857.332607843
 20
3643.1180922412
 10
2856.5442980009
 20
3643.1260107557
 10
2856.1022809409
 20
3643.1341551646
 10
2856.0135275363
 20
3643.1423970256
 10
2856.2794374811
 20
3643.1506063599
 10
2856.8958172168
 20
3643.1586537011
 10
2857.8529460666
 20
3643.166412138
 10
2859.0995977878
 20
3643.173580374
  0
LWPOLYLINE
  5
249
330
1F
100
AcDbEntity
  8
0
  6
Continuous
 62
     7
370
    15
100
AcDbPolyline
 90
       31
 70
   128
 43
0.0
 10
2897.9240821622
 20
3643.1636444463
 10
2898.7868674966
 20
3643.1561961832
 10
2899.3227672334
 20
3643.1483337892
 10
2899.5024251445
 20
3643.1403345254
 10
2899.3227672334
 20
3643.1323352617
 10
2898.7868674966
 20
3643.1244728676
 10
2897.9038953272
 20
3643.1168818709
 10
2896.688958624
 20
3643.1096921556
 10
2895.1628452906
 20
3643.1030267397
 10
2893.3516675494
 20
3643.0969996704
 10
2891.2864151537
 20
3643.0917140725
 10
2889.0024251445
 20
3643.087260384
 10
2886.5387772242
 20
3643.0837148088
 10
2883.9376250917
 20
3643.0811380126
 10
2881.2434751811
 20
3643.0795740852
 10
2878.5024251445
 20
3643.0790497857
 10
2875.7613751079
 20
3643.0795740852
 10
2873.0672251973
 20
3643.0811380126
 10
2870.4660730648
 20
3643.0837148088
 10
2868.0024251445
 20
3643.087260384
 10
2865.7184351353
 20
3643.0917140725
 10
2863.6531827396
 20
3643.0969996704
 10
2861.8420049984
 20
3643.1030267397
 10
2860.315891665
 20
3643.1096921556
 10
2859.1009549618
 20
3643.1168818709
 10
2858.2179827924
 20
3643.1244728676
 10
2857.6820830557
 20
3643.1323352617
 10
2857.5024251445
 20
3643.1403345254
 10
2857.6820830557
 20
3643.1483337892
 10
2858.2179827924
 20
3643.1561961832
 10
2859.0543240052
 20
3643.1634559095
  0
LINE
  5
24A
330
1F
100
AcDbEntity
  8
0
  6
Continuous
 62
     7
370
    15
100
AcDbLine
 10
2153.5024251445
 20
4679.0945088553
 30
0.0
 11
2198.5024251445
 21
4679.0945088553
 31
0.0
  0
LINE
  5
24B
330
1F
100
AcDbEntity
  8
0
  6
Continuous
 62
     7
370
    15
100
AcDbLine
 10
2153.5024251445
 20
4665.0945088553
 30
0.0
 11
2198.5024251445
 21
4665.0945088553
 31
0.0
  0
LINE
  5
24C
330
1F
100
AcDbEntity
  8
0
  6
Continuous
 62
     7
370
    15
100
AcDbLine
 10
1780.5035980686
 20
4209.0945088553
 30
0.0
 11
1825.5035980686
 21
4209.0945088553
 31
0.0
  0
LINE
  5
24D
330
1F
100
AcDbEntity
  8
0
  6
Continuous
 62
     7
370
    15
100
AcDbLine
 10
1780.5035980686
 20
4195.0945088553
 30
0.0
 11
1825.5035980686
 21
4195.0945088553
 31
0.0
  0
LINE
  5
24E
330
1F
100
AcDbEntity
  8
0
  6
Continuous
 62
     7
370
    15
100
AcDbLine
 10
2571.3264666778
 20
4063.1405099907
 30
0.0
 11
2526.3264666778
 21
4063.1405099907
 31
0.0
  0
LINE
  5
24F
330
1F
100
AcDbEntity
  8
0
  6
Continuous
 62
     7
370
    15
100
AcDbLine
 10
2571.3264666778
 20
4049.1405099907
 30
0.0
 11
2526.3264666778
 21
4049.1405099907
 31
0.0
  0
LINE
  5
250
330
1F
100
AcDbEntity
  8
0
  6
Continuous
 62
     7
370
    15
100
AcDbLine
 10
2526.3264666778
 20
4195.0945088553
 30
0.0
 11
2571.3264666778
 21
4195.0945088553
 31
0.0
  0
LINE
  5
251
330
1F
100
AcDbEntity
  8
0
  6
Continuous
 62
     7
370
    15
100
AcDbLine
 10
2526.3264666778
 20
4209.0945088553
 30
0.0
 11
2571.3264666778
 21
4209.0945088553
 31
0.0
  0
LWPOLYLINE
  5
252
330
1F
100
AcDbEntity
  8
0
  6
Continuous
 62
     7
370
    15
100
AcDbPolyline
 90
       22
 70
   128
 43
0.0
 10
1489.4123277212
 20
3629.1868243436
 10
1487.2928338517
 20
3629.1922774749
 10
1484.9558569989
 20
3629.196912375
 10
1482.4382526838
 20
3629.2006559489
 10
1479.7797250304
 20
3629.2034491581
 10
1477.0222006079
 20
3629.2052479519
 10
1474.2091672238
 20
3629.2060239625
 10
1471.3849880948
 20
3629.2057649516
 10
1468.5942022131
 20
3629.2044750039
 10
1465.880821939
 20
3629.2021744628
 10
1463.2876389004
 20
3629.1988996091
 10
1460.8555491428
 20
3629.1947020893
 10
1458.6229081747
 20
3629.1896481006
 10
1456.6249260778
 20
3629.1838173477
 10
1454.8931122233
 20
3629.1773017848
 10
1453.4547783503
 20
3629.1702041663
 10
1452.332607843
 20
3629.162636426
 10
1451.5442980009
 20
3629.1547179115
 10
1451.1022809409
 20
3629.1465735026
 10
1451.0135275363
 20
3629.1383316415
 10
1451.2794374811
 20
3629.1301223073
 10
1451.7524251445
 20
3629.1235821054
  0
LWPOLYLINE
  5
253
330
1F
100
AcDbEntity
  8
0
  6
Continuous
 62
     7
370
    15
100
AcDbPolyline
 90
       10
 70
   128
 43
0.0
 10
1495.2524251445
 20
3629.1235821054
 10
1495.4605522881
 20
3629.126070372
 10
1495.9025693481
 20
3629.1342147809
 10
1495.9913227527
 20
3629.142456642
 10
1495.7254128079
 20
3629.1506659762
 10
1495.1090330722
 20
3629.1587133174
 10
1494.1519042224
 20
3629.1664717544
 10
1492.8691207521
 20
3629.1738189317
 10
1491.280912923
 20
3629.1806389802
 10
1489.4123277212
 20
3629.1868243436
  0
LWPOLYLINE
  5
254
330
1F
100
AcDbEntity
  8
0
  6
Continuous
 62
     7
370
    15
100
AcDbPolyline
 90
       20
 70
   128
 43
0.0
 10
1489.4123277212
 20
3643.1867647272
 10
1487.2928338517
 20
3643.1922178586
 10
1484.9558569989
 20
3643.1968527587
 10
1482.4382526838
 20
3643.2005963326
 10
1479.7797250304
 20
3643.2033895417
 10
1477.0222006079
 20
3643.2051883356
 10
1474.2091672238
 20
3643.2059643462
 10
1471.3849880948
 20
3643.2057053353
 10
1468.5942022131
 20
3643.2044153876
 10
1465.880821939
 20
3643.2021148465
 10
1463.2876389004
 20
3643.1988399928
 10
1460.8555491428
 20
3643.194642473
 10
1458.6229081747
 20
3643.1895884843
 10
1456.6249260778
 20
3643.1837577314
 10
1454.8931122233
 20
3643.1772421685
 10
1453.4547783503
 20
3643.17014455
 10
1452.332607843
 20
3643.1625768097
 10
1451.5442980009
 20
3643.1546582952
 10
1451.1022809409
 20
3643.1465138863
 10
1451.0024251445
 20
3643.1403345254
  0
ARC
  5
255
330
1F
100
AcDbEntity
  8
0
  6
Continuous
 62
     7
370
    15
100
AcDbCircle
 10
1490.1863356045
 20
3285.3381682866
 30
0.0
 40
357.8494335090949
100
AcDbArc
 50
89.0687366652
 51
90.1239275948
  0
LWPOLYLINE
  5
256
330
1F
100
AcDbEntity
  8
0
  6
Continuous
 62
     7
370
    15
100
AcDbPolyline
 90
       21
 70
   128
 43
0.0
 10
1489.0587743306
 20
3629.1857925613
 10
1486.9417551387
 20
3629.1912252619
 10
1484.6040625199
 20
3629.195823317
 10
1482.0840813223
 20
3629.1995112265
 10
1479.4231895675
 20
3629.2022284351
 10
1476.6650790246
 20
3629.2039303264
 10
1473.8550377924
 20
3629.2045889552
 10
1471.0392066702
 20
3629.204193507
 10
1468.2638215273
 20
3629.202750475
 10
1465.574454111
 20
3629.2002835537
 10
1463.0152637599
 20
3629.1968332499
 10
1460.6282723088
 20
3629.1924562175
 10
1458.4526740913
 20
3629.1872243273
 10
1456.52419237
 20
3629.1812234867
 10
1454.8744927615
 20
3629.1745522294
 10
1453.5306632877
 20
3629.1673200973
 10
1452.5147695915
 20
3629.1596458417
 10
1451.8434926192
 20
3629.1516554737
 10
1451.5278547202
 20
3629.143480195
 10
1451.57303866
 20
3629.1352542433
 10
1451.7524251445
 20
3629.1307427024
  0
LWPOLYLINE
  5
257
330
1F
100
AcDbEntity
  8
0
  6
Continuous
 62
     7
370
    15
100
AcDbPolyline
 90
        9
 70
   128
 43
0.0
 10
1495.2524251445
 20
3629.1307427024
 10
1495.3640937622
 20
3629.1332056797
 10
1495.4995991521
 20
3629.1414231786
 10
1495.273911553
 20
3629.1496237808
 10
1494.690736749
 20
3629.1576728325
 10
1493.7596504542
 20
3629.1654381687
 10
1492.4959410798
 20
3629.1727922825
 10
1490.9203586989
 20
3629.1796144199
 10
1489.0587743306
 20
3629.1857925613
  0
LWPOLYLINE
  5
258
330
1F
100
AcDbEntity
  8
0
  6
Continuous
 62
     7
370
    15
100
AcDbPolyline
 90
       15
 70
   128
 43
0.0
 10
2500.4763384398
 20
4121.2679436678
 10
2500.4570713904
 20
4121.2655356195
 10
2499.7575641206
 20
4121.1764245686
 10
2499.1244404647
 20
4121.1227865253
 10
2498.6470731113
 20
4121.12769219
 10
2498.3638122214
 20
4121.1855746678
 10
2498.2939199598
 20
4121.2743876531
 10
2498.4583287115
 20
4121.3584887421
 10
2498.8431469044
 20
4121.3975407411
 10
2499.3850141985
 20
4121.3752650625
 10
2500.026538125
 20
4121.3044468762
 10
2500.7233975787
 20
4121.2126401849
 10
2501.3980702093
 20
4121.1392551428
 10
2501.874576407
 20
4121.117509423
 10
2501.874576407
 20
4121.117509423
  0
SPLINE
  5
259
330
1F
100
AcDbEntity
  8
0
  6
Continuous
 62
     7
370
    15
100
AcDbSpline
210
0.0
220
0.0
230
1.0
 70
     8
 71
     3
 72
    19
 73
    15
 74
     0
 42
0.00000001
 43
0.00000001
 40
0.0
 40
0.0
 40
0.0
 40
0.0
 40
0.0830600880711187
 40
0.1660558830256817
 40
0.2507369636994994
 40
0.3367946258126976
 40
0.4209460669385287
 40
0.5028503780509426
 40
0.5856767627824314
 40
0.6711104127381723
 40
0.7568658472343827
 40
0.8402115932960541
 40
0.9221983511967029
 40
1.0
 40
1.0
 40
1.0
 40
1.0
 10
2212.667902901701
 20
4137.117509423
 30
0.0
 10
2212.488196671772
 20
4137.111473452219
 30
0.0
 10
2212.128923314506
 20
4137.099406182832
 30
0.0
 10
2211.444528229267
 20
4137.014762216489
 30
0.0
 10
2210.737057094333
 20
4136.91693503415
 30
0.0
 10
2210.068844074105
 20
4136.84271024404
 30
0.0
 10
2209.530859140217
 20
4136.829050485524
 30
0.0
 10
2209.180959849155
 20
4136.87910969012
 30
0.0
 10
2209.04496861049
 20
4136.969975397018
 30
0.0
 10
2209.14160901266
 20
4137.065073748314
 30
0.0
 10
2209.470541517679
 20
4137.12240408486
 30
0.0
 10
2209.986961578218
 20
4137.117096395948
 30
0.0
 10
2210.610239308352
 20
4137.055587696214
 30
0.0
 10
2211.053524265949
 20
4136.995849962897
 30
0.0
 10
2211.269361580446
 20
4136.966763408724
 30
0.0
  0
LWPOLYLINE
  5
25A
330
1F
100
AcDbEntity
  8
0
  6
Continuous
 62
     7
370
    15
100
AcDbPolyline
 90
       15
 70
   128
 43
0.0
 10
2211.2696649345
 20
4121.2679436678
 10
2211.2503978851
 20
4121.2655356195
 10
2210.5508906153
 20
4121.1764245686
 10
2209.9177669594
 20
4121.1227865253
 10
2209.440399606
 20
4121.12769219
 10
2209.1571387161
 20
4121.1855746678
 10
2209.0872464545
 20
4121.2743876531
 10
2209.2516552062
 20
4121.3584887421
 10
2209.6364733991
 20
4121.3975407411
 10
2210.1783406932
 20
4121.3752650625
 10
2210.8198646197
 20
4121.3044468762
 10
2211.5167240734
 20
4121.2126401849
 10
2212.191396704
 20
4121.1392551428
 10
2212.6679029017
 20
4121.117509423
 10
2212.6679029017
 20
4121.117509423
  0
SPLINE
  5
25B
330
1F
100
AcDbEntity
  8
0
  6
Continuous
 62
     7
370
    15
100
AcDbSpline
210
0.0
220
0.0
230
1.0
 70
     8
 71
     3
 72
    19
 73
    15
 74
     0
 42
0.00000001
 43
0.00000001
 40
0.0
 40
0.0
 40
0.0
 40
0.0
 40
0.0848819779069797
 40
0.1696982524535923
 40
0.2562367787881558
 40
0.3441820813258037
 40
0.4301793506805804
 40
0.513880200123182
 40
0.5985233485011793
 40
0.685830951424091
 40
0.7734673971027735
 40
0.858641298794152
 40
0.9424264034623393
 40
1.0
 40
1.0
 40
1.0
 40
1.0
 10
1849.955488339388
 20
4121.117509423001
 30
0.0
 10
1850.135194570216
 20
4121.123545393267
 30
0.0
 10
1850.494467929278
 20
4121.135612661623
 30
0.0
 10
1851.17886300096
 20
4121.220256635745
 30
0.0
 10
1851.886334188703
 20
4121.318083787786
 30
0.0
 10
1852.55454700915
 20
4121.392308692512
 30
0.0
 10
1853.092532668628
 20
4121.40596803475
 30
0.0
 10
1853.442429324744
 20
4121.355910341847
 30
0.0
 10
1853.578430553838
 20
4121.265038903341
 30
0.0
 10
1853.481751581033
 20
4121.169962680403
 30
0.0
 10
1853.152963095999
 20
4121.112549718159
 30
0.0
 10
1852.636022661385
 20
4121.118155950851
 30
0.0
 10
1852.069470441475
 20
4121.173257790917
 30
0.0
 10
1851.686458364341
 20
4121.224553502987
 30
0.0
 10
1851.530462429107
 20
4121.245445592443
 30
0.0
  0
SPLINE
  5
25C
330
1F
100
AcDbEntity
  8
0
  6
Continuous
 62
     7
370
    15
100
AcDbSpline
210
0.0
220
0.0
230
1.0
 70
     8
 71
     3
 72
    11
 73
     7
 74
     0
 42
0.00000001
 43
0.00000001
 40
0.0
 40
0.0
 40
0.0
 40
0.0
 40
0.2318605844438658
 40
0.4997139674730779
 40
0.7729324822858931
 40
1.0
 40
1.0
 40
1.0
 40
1.0
 10
1852.374794183554
 20
4136.867509423
 30
0.0
 10
1852.187191327459
 20
4136.887025733005
 30
0.0
 10
1851.78286315002
 20
4136.929087960725
 30
0.0
 10
1851.096693208945
 20
4137.026576727164
 30
0.0
 10
1850.44496583762
 20
4137.103061783366
 30
0.0
 10
1850.108294963434
 20
4137.112999113444
 30
0.0
 10
1849.955488339388
 20
4137.117509423
 30
0.0
  0
SPLINE
  5
25D
330
1F
100
AcDbEntity
  8
0
  6
Continuous
 62
     7
370
    15
100
AcDbSpline
210
0.0
220
0.0
230
1.0
 70
     8
 71
     3
 72
    19
 73
    15
 74
     0
 42
0.00000001
 43
0.00000001
 40
0.0
 40
0.0
 40
0.0
 40
0.0
 40
0.0848819779069863
 40
0.169698252453598
 40
0.2562367787881717
 40
0.3441820813258277
 40
0.4301793506806063
 40
0.5138802001232192
 40
0.5985233485012206
 40
0.6858309514241426
 40
0.7734673971028272
 40
0.8586412987942172
 40
0.9424264034624078
 40
1.0
 40
1.0
 40
1.0
 40
1.0
 10
2139.162161844682
 20
4121.117509423
 30
0.0
 10
2139.34186807551
 20
4121.123545393267
 30
0.0
 10
2139.701141434573
 20
4121.135612661623
 30
0.0
 10
2140.385536506255
 20
4121.220256635744
 30
0.0
 10
2141.093007693997
 20
4121.318083787785
 30
0.0
 10
2141.761220514445
 20
4121.392308692512
 30
0.0
 10
2142.299206173922
 20
4121.40596803475
 30
0.0
 10
2142.649102830039
 20
4121.355910341847
 30
0.0
 10
2142.785104059133
 20
4121.265038903341
 30
0.0
 10
2142.688425086327
 20
4121.169962680403
 30
0.0
 10
2142.359636601294
 20
4121.112549718159
 30
0.0
 10
2141.84269616668
 20
4121.118155950851
 30
0.0
 10
2141.27614394677
 20
4121.173257790916
 30
0.0
 10
2140.893131869636
 20
4121.224553502987
 30
0.0
 10
2140.737135934403
 20
4121.245445592443
 30
0.0
  0
LWPOLYLINE
  5
25E
330
1F
100
AcDbEntity
  8
0
  6
Continuous
 62
     7
370
    15
100
AcDbPolyline
 90
       14
 70
   128
 43
0.0
 10
2140.6483905719
 20
4136.9782380206
 10
2141.279174131
 20
4137.0585942774
 10
2141.912297787
 20
4137.1122323207
 10
2142.3896651404
 20
4137.107326656
 10
2142.6729260303
 20
4137.0494441782
 10
2142.7428182919
 20
4136.9606311929
 10
2142.5784095402
 20
4136.8765301039
 10
2142.1935913473
 20
4136.8374781049
 10
2141.6517240532
 20
4136.8597537835
 10
2141.0102001267
 20
4136.9305719698
 10
2140.313340673
 20
4137.0223786611
 10
2139.6386680424
 20
4137.0957637032
 10
2139.1621618447
 20
4137.117509423
 10
2139.1621618447
 20
4137.117509423
  0
LINE
  5
25F
330
1F
100
AcDbEntity
  8
0
  6
Continuous
 62
     7
370
    15
100
AcDbLine
 10
1853.9188247583
 20
4136.867509423
 30
0.0
 11
1851.7682434415
 21
4136.867509423
 31
0.0
  0
LINE
  5
260
330
1F
100
AcDbEntity
  8
0
  6
Continuous
 62
     7
370
    15
100
AcDbLine
 10
1849.8494223222
 20
4137.117509423
 30
0.0
 11
1853.6904125799
 21
4137.117509423
 31
0.0
  0
LINE
  5
261
330
1F
100
AcDbEntity
  8
0
  6
Continuous
 62
     7
370
    15
100
AcDbLine
 10
2159.291860276
 20
4138.867509423
 30
0.0
 11
2157.6716751014
 21
4138.867509423
 31
0.0
  0
LINE
  5
262
330
1F
100
AcDbEntity
  8
0
  6
Continuous
 62
     7
370
    15
100
AcDbLine
 10
2155.3195517948
 20
4139.117509423
 30
0.0
 11
2159.1605420525
 21
4139.117509423
 31
0.0
  0
LINE
  5
263
330
1F
100
AcDbEntity
  8
0
  6
Continuous
 62
     7
370
    15
100
AcDbLine
 10
2498.3144377091
 20
4137.117509423
 30
0.0
 11
2502.1554279668
 21
4137.117509423
 31
0.0
  0
LINE
  5
264
330
1F
100
AcDbEntity
  8
0
  6
Continuous
 62
     7
370
    15
100
AcDbLine
 10
2500.2366068475
 20
4136.867509423
 30
0.0
 11
2498.0860255307
 21
4136.867509423
 31
0.0
  0
LINE
  5
265
330
1F
100
AcDbEntity
  8
0
  6
Continuous
 62
     7
370
    15
100
AcDbLine
 10
2126.200007086
 20
4591.367509423
 30
0.0
 11
2128.5024251445
 21
4591.367509423
 31
0.0
  0
LINE
  5
266
330
1F
100
AcDbEntity
  8
0
  6
Continuous
 62
     7
370
    15
100
AcDbLine
 10
2124.4817345119
 20
4591.367509423
 30
0.0
 11
2126.200007086
 21
4591.367509423
 31
0.0
  0
LINE
  5
267
330
1F
100
AcDbEntity
  8
0
  6
Continuous
 62
     7
370
    15
100
AcDbLine
 10
2126.1802488918
 20
4591.117509423
 30
0.0
 11
2123.7524251445
 21
4591.117509423
 31
0.0
  0
LINE
  5
268
330
1F
100
AcDbEntity
  8
0
  6
Continuous
 62
     7
370
    15
100
AcDbLine
 10
2128.2524251445
 20
4591.117509423
 30
0.0
 11
2126.1802488918
 21
4591.117509423
 31
0.0
  0
LINE
  5
269
330
1F
100
AcDbEntity
  8
0
  6
Continuous
 62
     7
370
    15
100
AcDbLine
 10
2192.8443082365
 20
4139.117509423
 30
0.0
 11
2196.6852984942
 21
4139.117509423
 31
0.0
  0
LINE
  5
26A
330
1F
100
AcDbEntity
  8
0
  6
Continuous
 62
     7
370
    15
100
AcDbLine
 10
2194.3331751876
 20
4138.867509423
 30
0.0
 11
2192.712990013
 21
4138.867509423
 31
0.0
  0
LINE
  5
26B
330
1F
100
AcDbEntity
  8
0
  6
Continuous
 62
     7
370
    15
100
AcDbLine
 10
2123.7524251445
 20
4607.117509423
 30
0.0
 11
2128.2524251445
 21
4607.117509423
 31
0.0
  0
LINE
  5
26C
330
1F
100
AcDbEntity
  8
0
  6
Continuous
 62
     7
370
    15
100
AcDbLine
 10
2127.5231157771
 20
4606.867509423
 30
0.0
 11
2124.4817345119
 21
4606.867509423
 31
0.0
  0
LINE
  5
26D
330
1F
100
AcDbEntity
  8
0
  6
Continuous
 62
     7
370
    15
100
AcDbLine
 10
1867.7738261951
 20
4591.117509423
 30
0.0
 11
1864.7524251445
 21
4591.117509423
 31
0.0
  0
LINE
  5
26E
330
1F
100
AcDbEntity
  8
0
  6
Continuous
 62
     7
370
    15
100
AcDbLine
 10
1869.2524251445
 20
4591.117509423
 30
0.0
 11
1867.7738261951
 21
4591.117509423
 31
0.0
  0
LINE
  5
26F
330
1F
100
AcDbEntity
  8
0
  6
Continuous
 62
     7
370
    15
100
AcDbLine
 10
1867.8595374229
 20
4591.367509423
 30
0.0
 11
1869.5024251445
 21
4591.367509423
 31
0.0
  0
LINE
  5
270
330
1F
100
AcDbEntity
  8
0
  6
Continuous
 62
     7
370
    15
100
AcDbLine
 10
1865.4817345119
 20
4591.367509423
 30
0.0
 11
1867.8595374229
 21
4591.367509423
 31
0.0
  0
LINE
  5
271
330
1F
100
AcDbEntity
  8
0
  6
Continuous
 62
     7
370
    15
100
AcDbLine
 10
1864.7524251445
 20
4607.117509423
 30
0.0
 11
1869.2524251445
 21
4607.117509423
 31
0.0
  0
LINE
  5
272
330
1F
100
AcDbEntity
  8
0
  6
Continuous
 62
     7
370
    15
100
AcDbLine
 10
1868.5231157771
 20
4606.867509423
 30
0.0
 11
1865.4817345119
 21
4606.867509423
 31
0.0
  0
LINE
  5
273
330
1F
100
AcDbEntity
  8
0
  6
Continuous
 62
     7
370
    15
100
AcDbLine
 10
2486.5231157771
 20
4606.867509423
 30
0.0
 11
2482.5024251445
 21
4606.867509423
 31
0.0
  0
LINE
  5
274
330
1F
100
AcDbEntity
  8
0
  6
Continuous
 62
     7
370
    15
100
AcDbLine
 10
2485.7738261951
 20
4607.117509423
 30
0.0
 11
2487.2524251445
 21
4607.117509423
 31
0.0
  0
LINE
  5
275
330
1F
100
AcDbEntity
  8
0
  6
Continuous
 62
     7
370
    15
100
AcDbLine
 10
2482.7524251445
 20
4607.117509423
 30
0.0
 11
2485.7738261951
 21
4607.117509423
 31
0.0
  0
LINE
  5
276
330
1F
100
AcDbEntity
  8
0
  6
Continuous
 62
     7
370
    15
100
AcDbLine
 10
2176.0466884638
 20
5190.3868746301
 30
0.0
 11
2176.7524251445
 21
5190.3868746301
 31
0.0
  0
LINE
  5
277
330
1F
100
AcDbEntity
  8
0
  6
Continuous
 62
     7
370
    15
100
AcDbLine
 10
2175.2524251445
 20
5190.3868746301
 30
0.0
 11
2176.0466884638
 21
5190.3868746301
 31
0.0
  0
LINE
  5
278
330
1F
100
AcDbEntity
  8
0
  6
Continuous
 62
     7
370
    15
100
AcDbLine
 10
2181.9087355354
 20
5652.419800232
 30
0.0
 11
2181.9761653439
 21
5652.419800232
 31
0.0
  0
LINE
  5
279
330
1F
100
AcDbEntity
  8
0
  6
Continuous
 62
     7
370
    15
100
AcDbLine
 10
2181.9087355354
 20
5646.9379359207
 30
0.0
 11
2181.9087355354
 21
5652.419800232
 31
0.0
  0
LINE
  5
27A
330
1F
100
AcDbEntity
  8
0
  6
Continuous
 62
     7
370
    15
100
AcDbLine
 10
2181.9761653439
 20
5646.9379359207
 30
0.0
 11
2181.9087355354
 21
5646.9379359207
 31
0.0
  0
LINE
  5
27B
330
1F
100
AcDbEntity
  8
0
  6
Continuous
 62
     7
370
    15
100
AcDbLine
 10
2181.9761653439
 20
5646.9379359207
 30
0.0
 11
2181.9761653439
 21
5652.419800232
 31
0.0
  0
LINE
  5
27C
330
1F
100
AcDbEntity
  8
0
  6
Continuous
 62
     7
370
    15
100
AcDbLine
 10
2181.1610069258
 20
5652.419800232
 30
0.0
 11
2181.3982195213
 21
5652.419800232
 31
0.0
  0
LINE
  5
27D
330
1F
100
AcDbEntity
  8
0
  6
Continuous
 62
     7
370
    15
100
AcDbLine
 10
2181.1610069258
 20
5646.9379359207
 30
0.0
 11
2181.1610069258
 21
5652.419800232
 31
0.0
  0
LINE
  5
27E
330
1F
100
AcDbEntity
  8
0
  6
Continuous
 62
     7
370
    15
100
AcDbLine
 10
2181.3982195213
 20
5646.9379359207
 30
0.0
 11
2181.1610069258
 21
5646.9379359207
 31
0.0
  0
LINE
  5
27F
330
1F
100
AcDbEntity
  8
0
  6
Continuous
 62
     7
370
    15
100
AcDbLine
 10
2181.3982195213
 20
5646.9379359207
 30
0.0
 11
2181.3982195213
 21
5652.419800232
 31
0.0
  0
LINE
  5
280
330
1F
100
AcDbEntity
  8
0
  6
Continuous
 62
     7
370
    15
100
AcDbLine
 10
2179.755403047
 20
5652.419800232
 30
0.0
 11
2180.1321466459
 21
5652.419800232
 31
0.0
  0
LINE
  5
281
330
1F
100
AcDbEntity
  8
0
  6
Continuous
 62
     7
370
    15
100
AcDbLine
 10
2179.755403047
 20
5646.9379359207
 30
0.0
 11
2179.755403047
 21
5652.419800232
 31
0.0
  0
LINE
  5
282
330
1F
100
AcDbEntity
  8
0
  6
Continuous
 62
     7
370
    15
100
AcDbLine
 10
2180.1321466459
 20
5646.9379359207
 30
0.0
 11
2179.755403047
 21
5646.9379359207
 31
0.0
  0
LINE
  5
283
330
1F
100
AcDbEntity
  8
0
  6
Continuous
 62
     7
370
    15
100
AcDbLine
 10
2180.1321466459
 20
5646.9379359207
 30
0.0
 11
2180.1321466459
 21
5652.419800232
 31
0.0
  0
LINE
  5
284
330
1F
100
AcDbEntity
  8
0
  6
Continuous
 62
     7
370
    15
100
AcDbLine
 10
2177.8711809253
 20
5652.419800232
 30
0.0
 11
2178.3394093189
 21
5652.419800232
 31
0.0
  0
LINE
  5
285
330
1F
100
AcDbEntity
  8
0
  6
Continuous
 62
     7
370
    15
100
AcDbLine
 10
2177.8711809253
 20
5646.9379359207
 30
0.0
 11
2177.8711809253
 21
5652.419800232
 31
0.0
  0
LINE
  5
286
330
1F
100
AcDbEntity
  8
0
  6
Continuous
 62
     7
370
    15
100
AcDbLine
 10
2178.3394093189
 20
5646.9379359207
 30
0.0
 11
2177.8711809253
 21
5646.9379359207
 31
0.0
  0
LINE
  5
287
330
1F
100
AcDbEntity
  8
0
  6
Continuous
 62
     7
370
    15
100
AcDbLine
 10
2178.3394093189
 20
5646.9379359207
 30
0.0
 11
2178.3394093189
 21
5652.419800232
 31
0.0
  0
LINE
  5
288
330
1F
100
AcDbEntity
  8
0
  6
Continuous
 62
     7
370
    15
100
AcDbLine
 10
2175.7486358954
 20
5652.419800232
 30
0.0
 11
2176.2486357955
 21
5652.419800232
 31
0.0
  0
LINE
  5
289
330
1F
100
AcDbEntity
  8
0
  6
Continuous
 62
     7
370
    15
100
AcDbLine
 10
2175.7486358954
 20
5646.9379359207
 30
0.0
 11
2175.7486358954
 21
5652.419800232
 31
0.0
  0
LINE
  5
28A
330
1F
100
AcDbEntity
  8
0
  6
Continuous
 62
     7
370
    15
100
AcDbLine
 10
2176.2486357955
 20
5646.9379359207
 30
0.0
 11
2175.7486358954
 21
5646.9379359207
 31
0.0
  0
LINE
  5
28B
330
1F
100
AcDbEntity
  8
0
  6
Continuous
 62
     7
370
    15
100
AcDbLine
 10
2176.2486357955
 20
5646.9379359207
 30
0.0
 11
2176.2486357955
 21
5652.419800232
 31
0.0
  0
LINE
  5
28C
330
1F
100
AcDbEntity
  8
0
  6
Continuous
 62
     7
370
    15
100
AcDbLine
 10
2173.6584566741
 20
5652.419800232
 30
0.0
 11
2174.1264629641
 21
5652.419800232
 31
0.0
  0
LINE
  5
28D
330
1F
100
AcDbEntity
  8
0
  6
Continuous
 62
     7
370
    15
100
AcDbLine
 10
2173.6584566741
 20
5646.9379359207
 30
0.0
 11
2173.6584566741
 21
5652.419800232
 31
0.0
  0
LINE
  5
28E
330
1F
100
AcDbEntity
  8
0
  6
Continuous
 62
     7
370
    15
100
AcDbLine
 10
2174.1264629641
 20
5646.9379359207
 30
0.0
 11
2173.6584566741
 21
5646.9379359207
 31
0.0
  0
LINE
  5
28F
330
1F
100
AcDbEntity
  8
0
  6
Continuous
 62
     7
370
    15
100
AcDbLine
 10
2174.1264629641
 20
5646.9379359207
 30
0.0
 11
2174.1264629641
 21
5652.419800232
 31
0.0
  0
LINE
  5
290
330
1F
100
AcDbEntity
  8
0
  6
Continuous
 62
     7
370
    15
100
AcDbLine
 10
2180.5183577443
 20
5645.593547849
 30
0.0
 11
2182.0024251445
 21
5645.593547849
 31
0.0
  0
LINE
  5
291
330
1F
100
AcDbEntity
  8
0
  6
Continuous
 62
     7
370
    15
100
AcDbLine
 10
2173.0276619304
 20
5645.593547849
 30
0.0
 11
2180.5183577443
 21
5645.593547849
 31
0.0
  0
LINE
  5
292
330
1F
100
AcDbEntity
  8
0
  6
Continuous
 62
     7
370
    15
100
AcDbLine
 10
2182.0024251445
 20
5654.893547849
 30
0.0
 11
2173.0276619304
 21
5654.893547849
 31
0.0
  0
LINE
  5
293
330
1F
100
AcDbEntity
  8
0
  6
Continuous
 62
     7
370
    15
100
AcDbLine
 10
2173.0276619304
 20
5652.419800232
 30
0.0
 11
2173.1389807908
 21
5652.419800232
 31
0.0
  0
LINE
  5
294
330
1F
100
AcDbEntity
  8
0
  6
Continuous
 62
     7
370
    15
100
AcDbLine
 10
2173.1389807908
 20
5646.9379359207
 30
0.0
 11
2173.0276619304
 21
5646.9379359207
 31
0.0
  0
LINE
  5
295
330
1F
100
AcDbEntity
  8
0
  6
Continuous
 62
     7
370
    15
100
AcDbLine
 10
2173.1389807908
 20
5646.9379359207
 30
0.0
 11
2173.1389807908
 21
5652.419800232
 31
0.0
  0
LINE
  5
296
330
1F
100
AcDbEntity
  8
0
  6
Continuous
 62
     7
370
    15
100
AcDbLine
 10
2174.6823318423
 20
5652.419800232
 30
0.0
 11
2175.1742401055
 21
5652.419800232
 31
0.0
  0
LINE
  5
297
330
1F
100
AcDbEntity
  8
0
  6
Continuous
 62
     7
370
    15
100
AcDbLine
 10
2174.6823318423
 20
5646.9379359207
 30
0.0
 11
2174.6823318423
 21
5652.419800232
 31
0.0
  0
LINE
  5
298
330
1F
100
AcDbEntity
  8
0
  6
Continuous
 62
     7
370
    15
100
AcDbLine
 10
2175.1742401055
 20
5646.9379359207
 30
0.0
 11
2174.6823318423
 21
5646.9379359207
 31
0.0
  0
LINE
  5
299
330
1F
100
AcDbEntity
  8
0
  6
Continuous
 62
     7
370
    15
100
AcDbLine
 10
2175.1742401055
 20
5646.9379359207
 30
0.0
 11
2175.1742401055
 21
5652.419800232
 31
0.0
  0
LINE
  5
29A
330
1F
100
AcDbEntity
  8
0
  6
Continuous
 62
     7
370
    15
100
AcDbLine
 10
2176.8230969438
 20
5652.419800232
 30
0.0
 11
2177.3151180726
 21
5652.419800232
 31
0.0
  0
LINE
  5
29B
330
1F
100
AcDbEntity
  8
0
  6
Continuous
 62
     7
370
    15
100
AcDbLine
 10
2176.8230969438
 20
5646.9379359207
 30
0.0
 11
2176.8230969438
 21
5652.419800232
 31
0.0
  0
LINE
  5
29C
330
1F
100
AcDbEntity
  8
0
  6
Continuous
 62
     7
370
    15
100
AcDbLine
 10
2177.3151180726
 20
5646.9379359207
 30
0.0
 11
2176.8230969438
 21
5646.9379359207
 31
0.0
  0
LINE
  5
29D
330
1F
100
AcDbEntity
  8
0
  6
Continuous
 62
     7
370
    15
100
AcDbLine
 10
2177.3151180726
 20
5646.9379359207
 30
0.0
 11
2177.3151180726
 21
5652.419800232
 31
0.0
  0
LINE
  5
29E
330
1F
100
AcDbEntity
  8
0
  6
Continuous
 62
     7
370
    15
100
AcDbLine
 10
2178.8592015584
 20
5652.419800232
 30
0.0
 11
2179.2885879709
 21
5652.419800232
 31
0.0
  0
LINE
  5
29F
330
1F
100
AcDbEntity
  8
0
  6
Continuous
 62
     7
370
    15
100
AcDbLine
 10
2178.8592015584
 20
5646.9379359207
 30
0.0
 11
2178.8592015584
 21
5652.419800232
 31
0.0
  0
LINE
  5
2A0
330
1F
100
AcDbEntity
  8
0
  6
Continuous
 62
     7
370
    15
100
AcDbLine
 10
2179.2885879709
 20
5646.9379359207
 30
0.0
 11
2178.8592015584
 21
5646.9379359207
 31
0.0
  0
LINE
  5
2A1
330
1F
100
AcDbEntity
  8
0
  6
Continuous
 62
     7
370
    15
100
AcDbLine
 10
2179.2885879709
 20
5646.9379359207
 30
0.0
 11
2179.2885879709
 21
5652.419800232
 31
0.0
  0
LINE
  5
2A2
330
1F
100
AcDbEntity
  8
0
  6
Continuous
 62
     7
370
    15
100
AcDbLine
 10
2180.5309807378
 20
5652.419800232
 30
0.0
 11
2180.8429726738
 21
5652.419800232
 31
0.0
  0
LINE
  5
2A3
330
1F
100
AcDbEntity
  8
0
  6
Continuous
 62
     7
370
    15
100
AcDbLine
 10
2180.5309807378
 20
5646.9379359207
 30
0.0
 11
2180.5309807378
 21
5652.419800232
 31
0.0
  0
LINE
  5
2A4
330
1F
100
AcDbEntity
  8
0
  6
Continuous
 62
     7
370
    15
100
AcDbLine
 10
2180.8429726738
 20
5646.9379359207
 30
0.0
 11
2180.5309807378
 21
5646.9379359207
 31
0.0
  0
LINE
  5
2A5
330
1F
100
AcDbEntity
  8
0
  6
Continuous
 62
     7
370
    15
100
AcDbLine
 10
2180.8429726738
 20
5646.9379359207
 30
0.0
 11
2180.8429726738
 21
5652.419800232
 31
0.0
  0
LINE
  5
2A6
330
1F
100
AcDbEntity
  8
0
  6
Continuous
 62
     7
370
    15
100
AcDbLine
 10
2181.6252320508
 20
5652.419800232
 30
0.0
 11
2181.7800410979
 21
5652.419800232
 31
0.0
  0
LINE
  5
2A7
330
1F
100
AcDbEntity
  8
0
  6
Continuous
 62
     7
370
    15
100
AcDbLine
 10
2181.6252320508
 20
5646.9379359207
 30
0.0
 11
2181.6252320508
 21
5652.419800232
 31
0.0
  0
LINE
  5
2A8
330
1F
100
AcDbEntity
  8
0
  6
Continuous
 62
     7
370
    15
100
AcDbLine
 10
2181.7800410979
 20
5646.9379359207
 30
0.0
 11
2181.6252320508
 21
5646.9379359207
 31
0.0
  0
LINE
  5
2A9
330
1F
100
AcDbEntity
  8
0
  6
Continuous
 62
     7
370
    15
100
AcDbLine
 10
2181.7800410979
 20
5646.9379359207
 30
0.0
 11
2181.7800410979
 21
5652.419800232
 31
0.0
  0
LINE
  5
2AA
330
1F
100
AcDbEntity
  8
0
  6
Continuous
 62
     7
370
    15
100
AcDbLine
 10
2180.1420300276
 20
5645.093547849
 30
0.0
 11
2173.0276619304
 21
5645.093547849
 31
0.0
  0
LINE
  5
2AB
330
1F
100
AcDbEntity
  8
0
  6
Continuous
 62
     7
370
    15
100
AcDbLine
 10
2171.1159393003
 20
5645.093547849
 30
0.0
 11
2170.5024251445
 21
5645.093547849
 31
0.0
  0
LINE
  5
2AC
330
1F
100
AcDbEntity
  8
0
  6
Continuous
 62
     7
370
    15
100
AcDbLine
 10
2181.5024251445
 20
5645.093547849
 30
0.0
 11
2180.1420300276
 21
5645.093547849
 31
0.0
  0
LINE
  5
2AD
330
1F
100
AcDbEntity
  8
0
  6
Continuous
 62
     7
370
    15
100
AcDbLine
 10
2175.7487938932
 20
5652.419800232
 30
0.0
 11
2175.7487938932
 21
5646.9379359207
 31
0.0
  0
LINE
  5
2AE
330
1F
100
AcDbEntity
  8
0
  6
Continuous
 62
     7
370
    15
100
AcDbLine
 10
2177.2706419173
 20
5652.419800232
 30
0.0
 11
2177.2706419173
 21
5646.9379359207
 31
0.0
  0
LINE
  5
2AF
330
1F
100
AcDbEntity
  8
0
  6
Continuous
 62
     7
370
    15
100
AcDbLine
 10
2174.727118915
 20
5652.419800232
 30
0.0
 11
2174.727118915
 21
5646.9379359207
 31
0.0
  0
LINE
  5
2B0
330
1F
100
AcDbEntity
  8
0
  6
Continuous
 62
     7
370
    15
100
AcDbLine
 10
2178.2517285107
 20
5652.419800232
 30
0.0
 11
2178.2517285107
 21
5646.9379359207
 31
0.0
  0
LINE
  5
2B1
330
1F
100
AcDbEntity
  8
0
  6
Continuous
 62
     7
370
    15
100
AcDbLine
 10
2173.7464333284
 20
5652.419800232
 30
0.0
 11
2173.7464333284
 21
5646.9379359207
 31
0.0
  0
LINE
  5
2B2
330
1F
100
AcDbEntity
  8
0
  6
Continuous
 62
     7
370
    15
100
AcDbLine
 10
2179.1605206433
 20
5652.419800232
 30
0.0
 11
2179.1605206433
 21
5646.9379359207
 31
0.0
  0
LINE
  5
2B3
330
1F
100
AcDbEntity
  8
0
  6
Continuous
 62
     7
370
    15
100
AcDbLine
 10
2179.9678089879
 20
5652.419800232
 30
0.0
 11
2179.9678089879
 21
5646.9379359207
 31
0.0
  0
LINE
  5
2B4
330
1F
100
AcDbEntity
  8
0
  6
Continuous
 62
     7
370
    15
100
AcDbLine
 10
2180.6476466332
 20
5652.419800232
 30
0.0
 11
2180.6476466332
 21
5646.9379359207
 31
0.0
  0
LINE
  5
2B5
330
1F
100
AcDbEntity
  8
0
  6
Continuous
 62
     7
370
    15
100
AcDbLine
 10
2181.1781830376
 20
5652.419800232
 30
0.0
 11
2181.1781830376
 21
5646.9379359207
 31
0.0
  0
LINE
  5
2B6
330
1F
100
AcDbEntity
  8
0
  6
Continuous
 62
     7
370
    15
100
AcDbLine
 10
2166.5024251445
 20
5652.593547849
 30
0.0
 11
2155.5024251445
 21
5652.593547849
 31
0.0
  0
LINE
  5
2B7
330
1F
100
AcDbEntity
  8
0
  6
Continuous
 62
     7
370
    15
100
AcDbLine
 10
2176.0024251445
 20
5656.593547849
 30
0.0
 11
2258.5024251445
 21
5656.593547849
 31
0.0
  0
LINE
  5
2B8
330
1F
100
AcDbEntity
  8
0
  6
Continuous
 62
     7
370
    15
100
AcDbLine
 10
2093.5024251445
 20
5656.593547849
 30
0.0
 11
2176.0024251445
 21
5656.593547849
 31
0.0
  0
LINE
  5
2B9
330
1F
100
AcDbEntity
  8
0
  6
Continuous
 62
     7
370
    15
100
AcDbLine
 10
2176.0024251445
 20
5655.093547849
 30
0.0
 11
2258.5024251445
 21
5655.093547849
 31
0.0
  0
LINE
  5
2BA
330
1F
100
AcDbEntity
  8
0
  6
Continuous
 62
     7
370
    15
100
AcDbLine
 10
2093.5024251445
 20
5655.093547849
 30
0.0
 11
2176.0024251445
 21
5655.093547849
 31
0.0
  0
LINE
  5
2BB
330
1F
100
AcDbEntity
  8
0
  6
Continuous
 62
     7
370
    15
100
AcDbLine
 10
2103.5024251445
 20
5735.593547849
 30
0.0
 11
2248.5019941087
 21
5735.593547849
 31
0.0
  0
LINE
  5
2BC
330
1F
100
AcDbEntity
  8
0
  6
Continuous
 62
     7
370
    15
100
AcDbLine
 10
2248.5019941087
 20
5735.593547849
 30
0.0
 11
2248.5019941087
 21
5656.593547849
 31
0.0
  0
LINE
  5
2BD
330
1F
100
AcDbEntity
  8
0
  6
Continuous
 62
     7
370
    15
100
AcDbLine
 10
2134.0024251445
 20
4599.117509423
 30
0.0
 11
2134.0024251445
 21
4607.617509423
 31
0.0
  0
LINE
  5
2BE
330
1F
100
AcDbEntity
  8
0
  6
Continuous
 62
     7
370
    15
100
AcDbLine
 10
2134.0024251445
 20
4590.617509423
 30
0.0
 11
2134.0024251445
 21
4599.117509423
 31
0.0
  0
LINE
  5
2BF
330
1F
100
AcDbEntity
  8
0
  6
Continuous
 62
     7
370
    15
100
AcDbLine
 10
2218.0024251445
 20
4607.617509423
 30
0.0
 11
2218.0024251445
 21
4590.617509423
 31
0.0
  0
LINE
  5
2C0
330
1F
100
AcDbEntity
  8
0
  6
Continuous
 62
     7
370
    15
100
AcDbLine
 10
2147.5151790945
 20
4119.1197770712
 30
0.0
 11
2147.3646005064
 21
4119.117509423
 31
0.0
  0
LINE
  5
2C1
330
1F
100
AcDbEntity
  8
0
  6
Continuous
 62
     7
370
    15
100
AcDbLine
 10
2147.138462874
 20
4139.1123942919
 30
0.0
 11
2147.3646005064
 21
4139.117509423
 31
0.0
  0
LWPOLYLINE
  5
2C2
330
1F
100
AcDbEntity
  8
0
  6
Continuous
 62
     7
370
    15
100
AcDbPolyline
 90
       10
 70
   128
 43
0.0
 10
2152.1375712795
 20
4129.117509423
 10
2152.0100924469
 20
4130.8327808722
 10
2151.6332273858
 20
4132.4730867284
 10
2151.0234469079
 20
4133.9667377544
 10
2150.207401346
 20
4135.2484542332
 10
2149.2207558071
 20
4136.2622190042
 10
2148.1066314355
 20
4136.9637256824
 10
2146.9137208126
 20
4137.3223150598
 10
2145.6941598567
 20
4137.3223150598
 10
2144.8787210533
 20
4137.117509423
  0
LWPOLYLINE
  5
2C3
330
1F
100
AcDbEntity
  8
0
  6
Continuous
 62
     7
370
    15
100
AcDbPolyline
 90
       10
 70
   128
 43
0.0
 10
2144.8787210533
 20
4121.117509423
 10
2145.6941598567
 20
4120.9127037862
 10
2146.9137208126
 20
4120.9127037862
 10
2148.1066314355
 20
4121.2712931636
 10
2149.2207558071
 20
4121.9727998418
 10
2150.207401346
 20
4122.9865646128
 10
2151.0234469079
 20
4124.2682810916
 10
2151.6332273858
 20
4125.7619321176
 10
2152.0100924469
 20
4127.4022379738
 10
2152.1375712795
 20
4129.117509423
  0
LINE
  5
2C4
330
1F
100
AcDbEntity
  8
0
  6
Continuous
 62
     7
370
    15
100
AcDbLine
 10
2204.7908283706
 20
4119.1197770712
 30
0.0
 11
2204.6402497826
 21
4119.117509423
 31
0.0
  0
LINE
  5
2C5
330
1F
100
AcDbEntity
  8
0
  6
Continuous
 62
     7
370
    15
100
AcDbLine
 10
2204.4141121501
 20
4139.1123942919
 30
0.0
 11
2204.6402497826
 21
4139.117509423
 31
0.0
  0
LWPOLYLINE
  5
2C6
330
1F
100
AcDbEntity
  8
0
  6
Continuous
 62
     7
370
    15
100
AcDbPolyline
 90
       19
 70
   128
 43
0.0
 10
2207.1261292357
 20
4137.117509423
 10
2206.3106904323
 20
4137.3223150598
 10
2205.0911294764
 20
4137.3223150598
 10
2203.8982188535
 20
4136.9637256824
 10
2202.7840944819
 20
4136.2622190042
 10
2201.797448943
 20
4135.2484542332
 10
2200.9814033811
 20
4133.9667377544
 10
2200.3716229032
 20
4132.4730867284
 10
2199.9947578421
 20
4130.8327808722
 10
2199.8672790095
 20
4129.117509423
 10
2199.9947578421
 20
4127.4022379738
 10
2200.3716229032
 20
4125.7619321176
 10
2200.9814033811
 20
4124.2682810916
 10
2201.797448943
 20
4122.9865646128
 10
2202.7840944819
 20
4121.9727998418
 10
2203.8982188535
 20
4121.2712931636
 10
2205.0911294764
 20
4120.9127037862
 10
2206.3106904323
 20
4120.9127037862
 10
2207.1261292357
 20
4121.117509423
  0
LINE
  5
2C7
330
1F
100
AcDbEntity
  8
0
  6
Continuous
 62
     7
370
    15
100
AcDbLine
 10
2218.0024251445
 20
3717.617509423
 30
0.0
 11
2218.0024251445
 21
3700.617509423
 31
0.0
  0
LINE
  5
2C8
330
1F
100
AcDbEntity
  8
0
  6
Continuous
 62
     7
370
    15
100
AcDbLine
 10
2134.0024251445
 20
3709.117509423
 30
0.0
 11
2134.0024251445
 21
3717.617509423
 31
0.0
  0
LINE
  5
2C9
330
1F
100
AcDbEntity
  8
0
  6
Continuous
 62
     7
370
    15
100
AcDbLine
 10
2134.0024251445
 20
3700.617509423
 30
0.0
 11
2134.0024251445
 21
3709.117509423
 31
0.0
  0
LINE
  5
2CC
330
1F
100
AcDbEntity
  8
0
  6
Continuous
 62
     8
370
    15
100
AcDbLine
 10
1760.5024251445
 20
4634.1171792387
 30
0.0
 11
1836.5024251445
 21
4634.1171792387
 31
0.0
  0
LINE
  5
2CD
330
1F
100
AcDbEntity
  8
0
  6
Continuous
 62
     8
370
    15
100
AcDbLine
 10
1760.5024251445
 20
4564.1171792387
 30
0.0
 11
1836.5024251445
 21
4564.1171792387
 31
0.0
  0
SPLINE
  5
2CE
330
1F
100
AcDbEntity
  8
0
  6
Continuous
 62
     8
370
    15
100
AcDbSpline
210
0.0
220
0.0
230
1.0
 70
     8
 71
     3
 72
    27
 73
    23
 74
     0
 42
0.00000001
 43
0.00000001
 40
0.0
 40
0.0
 40
0.0
 40
0.0
 40
0.0213510352562583
 40
0.0693948189604199
 40
0.1189942520760879
 40
0.1684890123059062
 40
0.2193789256995147
 40
0.2727203772523834
 40
0.3275166979877581
 40
0.383120685817656
 40
0.4403160010807788
 40
0.4927337912701626
 40
0.5465214926509833
 40
0.5999910844512845
 40
0.6548862019450044
 40
0.7072437166136789
 40
0.7609318082164088
 40
0.8139342352215596
 40
0.868537826024117
 40
0.9201222258814311
 40
0.9735650071381077
 40
1.0
 40
1.0
 40
1.0
 40
1.0
 10
1836.485660858088
 20
4584.66841357712
 30
0.0
 10
1836.489810693096
 20
4584.655721286578
 30
0.0
 10
1836.503298425453
 20
4584.614468991607
 30
0.0
 10
1836.392436855327
 20
4584.953320155248
 30
0.0
 10
1836.17477908273
 20
4585.641011409031
 30
0.0
 10
1835.857932889268
 20
4586.701275022503
 30
0.0
 10
1835.479634107324
 20
4588.08504554404
 30
0.0
 10
1835.068644135526
 20
4589.795736554116
 30
0.0
 10
1834.670532241639
 20
4591.799928148574
 30
0.0
 10
1834.33385058672
 20
4594.050010159101
 30
0.0
 10
1834.11213564424
 20
4596.409521582309
 30
0.0
 10
1834.025354819272
 20
4598.813690437908
 30
0.0
 10
1834.075300345568
 20
4601.171873498306
 30
0.0
 10
1834.258398744483
 20
4603.512017124524
 30
0.0
 10
1834.551876396416
 20
4605.718097089766
 30
0.0
 10
1834.924000846697
 20
4607.758277944114
 30
0.0
 10
1835.331126261175
 20
4609.562082558701
 30
0.0
 10
1835.740254469751
 20
4611.121233164481
 30
0.0
 10
1836.098536774835
 20
4612.346367947627
 30
0.0
 10
1836.360977594697
 20
4613.184282762109
 30
0.0
 10
1836.496626131255
 20
4613.599524844662
 30
0.0
 10
1836.489637566182
 20
4613.578126242663
 30
0.0
 10
1836.487324749258
 20
4613.571044524409
 30
0.0
  0
LINE
  5
2CF
330
1F
100
AcDbEntity
  8
0
  6
Continuous
 62
     8
370
    15
100
AcDbLine
 10
1778.8783462226
 20
4533.3171792387
 30
0.0
 11
1818.1265040664
 21
4533.3171792387
 31
0.0
  0
LINE
  5
2D0
330
1F
100
AcDbEntity
  8
0
  6
Continuous
 62
     8
370
    15
100
AcDbLine
 10
1778.8783462226
 20
4664.9171792387
 30
0.0
 11
1818.1265040664
 21
4664.9171792387
 31
0.0
  0
SPLINE
  5
2D1
330
1F
100
AcDbEntity
  8
0
  6
Continuous
 62
     8
370
    15
100
AcDbSpline
210
0.0
220
0.0
230
1.0
 70
     8
 71
     3
 72
    22
 73
    18
 74
     0
 42
0.00000001
 43
0.00000001
 40
0.0
 40
0.0
 40
0.0
 40
0.0
 40
0.0268093982435467
 40
0.0801749161130026
 40
0.1353783622912584
 40
0.1894352032386629
 40
0.2450917537026477
 40
0.3503981664396583
 40
0.4022701821157364
 40
0.455738681321549
 40
0.557516427961387
 40
0.6115963604323182
 40
0.6675067403351989
 40
0.7753610321070462
 40
0.8776710300442092
 40
0.9783085028794467
 40
1.0
 40
1.0
 40
1.0
 40
1.0
 10
1839.450590841644
 20
4610.499826018519
 30
0.0
 10
1839.467000778738
 20
4610.537065618791
 30
0.0
 10
1839.516075559082
 20
4610.648432602889
 30
0.0
 10
1839.345731242257
 20
4610.264437474911
 30
0.0
 10
1839.077659653723
 20
4609.635840020819
 30
0.0
 10
1838.686585179938
 20
4608.654402933373
 30
0.0
 10
1838.108559312969
 20
4607.041396152918
 30
0.0
 10
1837.512535958032
 20
4604.974726155475
 30
0.0
 10
1837.086032219927
 20
4602.63301175693
 30
0.0
 10
1836.819305695154
 20
4600.183474982685
 30
0.0
 10
1836.84566082692
 20
4597.576728496526
 30
0.0
 10
1837.162131316531
 20
4595.103091955146
 30
0.0
 10
1837.641916688143
 20
4592.737573425395
 30
0.0
 10
1838.407882799085
 20
4590.265944049278
 30
0.0
 10
1839.18042866466
 20
4588.334596848697
 30
0.0
 10
1839.508822810213
 20
4587.603019009415
 30
0.0
 10
1839.489007274235
 20
4587.647348858048
 30
0.0
 10
1839.485493563282
 20
4587.655209471804
 30
0.0
  0
LINE
  5
2D2
330
1F
100
AcDbEntity
  8
0
  6
Continuous
 62
     8
370
    15
100
AcDbLine
 10
1848.5024251445
 20
4587.6171792387
 30
0.0
 11
1848.5024251445
 21
4610.6171792387
 31
0.0
  0
LINE
  5
2D3
330
1F
100
AcDbEntity
  8
0
  6
Continuous
 62
     8
370
    15
100
AcDbLine
 10
1850.4744517389
 20
4599.1171792387
 30
0.0
 11
1850.4744517389
 21
4608.950512572
 31
0.0
  0
LINE
  5
2D4
330
1F
100
AcDbEntity
  8
0
  6
Continuous
 62
     8
370
    15
100
AcDbLine
 10
1850.4744517389
 20
4589.2838459053
 30
0.0
 11
1850.4744517389
 21
4599.1171792387
 31
0.0
  0
LINE
  5
2D5
330
1F
100
AcDbEntity
  8
0
  6
Continuous
 62
     8
370
    15
100
AcDbLine
 10
1822.8024625331
 20
4063.317509423
 30
0.0
 11
1822.6276769905
 21
4063.317509423
 31
0.0
  0
LINE
  5
2D6
330
1F
100
AcDbEntity
  8
0
  6
Continuous
 62
     8
370
    15
100
AcDbLine
 10
1841.1783836112
 20
4094.117509423
 30
0.0
 11
1841.0035980686
 21
4094.117509423
 31
0.0
  0
LINE
  5
2D7
330
1F
100
AcDbEntity
  8
0
  6
Continuous
 62
     8
370
    15
100
AcDbLine
 10
1841.1783836112
 20
4164.117509423
 30
0.0
 11
1841.0035980686
 21
4164.117509423
 31
0.0
  0
LINE
  5
2D8
330
1F
100
AcDbEntity
  8
0
  6
Continuous
 62
     8
370
    15
100
AcDbLine
 10
1822.8024625331
 20
4194.917509423
 30
0.0
 11
1822.6276769905
 21
4194.917509423
 31
0.0
  0
LINE
  5
2D9
330
1F
100
AcDbEntity
  8
0
  6
Continuous
 62
     8
370
    15
100
AcDbLine
 10
1789.1272787884
 20
4194.917509423
 30
0.0
 11
1822.6276769905
 21
4194.917509423
 31
0.0
  0
LINE
  5
2DA
330
1F
100
AcDbEntity
  8
0
  6
Continuous
 62
     8
370
    15
100
AcDbLine
 10
1783.3795191467
 20
4194.917509423
 30
0.0
 11
1789.1272787884
 21
4194.917509423
 31
0.0
  0
LINE
  5
2DB
330
1F
100
AcDbEntity
  8
0
  6
Continuous
 62
     8
370
    15
100
AcDbLine
 10
1776.1335403835
 20
4164.117509423
 30
0.0
 11
1841.0035980686
 21
4164.117509423
 31
0.0
  0
LINE
  5
2DC
330
1F
100
AcDbEntity
  8
0
  6
Continuous
 62
     8
370
    15
100
AcDbLine
 10
1765.0035980686
 20
4164.117509423
 30
0.0
 11
1776.1335403835
 21
4164.117509423
 31
0.0
  0
LINE
  5
2DD
330
1F
100
AcDbEntity
  8
0
  6
Continuous
 62
     8
370
    15
100
AcDbLine
 10
1776.1335403835
 20
4094.117509423
 30
0.0
 11
1841.0035980686
 21
4094.117509423
 31
0.0
  0
LINE
  5
2DE
330
1F
100
AcDbEntity
  8
0
  6
Continuous
 62
     8
370
    15
100
AcDbLine
 10
1765.0035980686
 20
4094.117509423
 30
0.0
 11
1776.1335403835
 21
4094.117509423
 31
0.0
  0
LINE
  5
2DF
330
1F
100
AcDbEntity
  8
0
  6
Continuous
 62
     8
370
    15
100
AcDbLine
 10
1789.1272787884
 20
4063.317509423
 30
0.0
 11
1822.6276769905
 21
4063.317509423
 31
0.0
  0
LINE
  5
2E0
330
1F
100
AcDbEntity
  8
0
  6
Continuous
 62
     8
370
    15
100
AcDbLine
 10
1783.3795191467
 20
4063.317509423
 30
0.0
 11
1789.1272787884
 21
4063.317509423
 31
0.0
  0
LWPOLYLINE
  5
2E1
330
1F
100
AcDbEntity
  8
0
  6
Continuous
 62
     8
370
    15
100
AcDbPolyline
 90
       16
 70
   128
 43
0.0
 10
1841.0035980686
 20
4118.2426973778
 10
1841.5549097761
 20
4118.5429400387
 10
1842.8386815281
 20
4119.5199170052
 10
1843.9784706091
 20
4120.805368489
 10
1844.9376432603
 20
4122.3579790216
 10
1845.6853708834
 20
4124.1278464231
 10
1846.1976208974
 20
4126.058085699
 10
1846.4579291654
 20
4128.0866573706
 10
1846.4579291654
 20
4130.1483614754
 10
1846.1976208974
 20
4132.176933147
 10
1845.6853708834
 20
4134.1071724229
 10
1844.9376432603
 20
4135.8770398244
 10
1843.9784706091
 20
4137.429650357
 10
1842.8386815281
 20
4138.7151018408
 10
1841.5549097761
 20
4139.6920788073
 10
1841.0035980686
 20
4139.9923214682
  0
LINE
  5
2E2
330
1F
100
AcDbEntity
  8
0
  6
Continuous
 62
     8
370
    15
100
AcDbLine
 10
2176.0024251445
 20
4634.117509423
 30
0.0
 11
2138.0024251445
 21
4634.117509423
 31
0.0
  0
LINE
  5
2E3
330
1F
100
AcDbEntity
  8
0
  6
Continuous
 62
     8
370
    15
100
AcDbLine
 10
2214.0024251445
 20
4634.117509423
 30
0.0
 11
2176.0024251445
 21
4634.117509423
 31
0.0
  0
LINE
  5
2E4
330
1F
100
AcDbEntity
  8
0
  6
Continuous
 62
     8
370
    15
100
AcDbLine
 10
2176.0024251445
 20
4664.917509423
 30
0.0
 11
2156.3783462226
 21
4664.917509423
 31
0.0
  0
LINE
  5
2E5
330
1F
100
AcDbEntity
  8
0
  6
Continuous
 62
     8
370
    15
100
AcDbLine
 10
2195.6265040664
 20
4664.917509423
 30
0.0
 11
2176.0024251445
 21
4664.917509423
 31
0.0
  0
LINE
  5
2E6
330
1F
100
AcDbEntity
  8
0
  6
Continuous
 62
     8
370
    15
100
AcDbLine
 10
2176.0024251445
 20
4533.317509423
 30
0.0
 11
2156.3783462226
 21
4533.317509423
 31
0.0
  0
LINE
  5
2E7
330
1F
100
AcDbEntity
  8
0
  6
Continuous
 62
     8
370
    15
100
AcDbLine
 10
2195.6265040664
 20
4533.317509423
 30
0.0
 11
2176.0024251445
 21
4533.317509423
 31
0.0
  0
LINE
  5
2E8
330
1F
100
AcDbEntity
  8
0
  6
Continuous
 62
     8
370
    15
100
AcDbLine
 10
2176.0024251445
 20
4564.117509423
 30
0.0
 11
2138.0024251445
 21
4564.117509423
 31
0.0
  0
LINE
  5
2E9
330
1F
100
AcDbEntity
  8
0
  6
Continuous
 62
     8
370
    15
100
AcDbLine
 10
2214.0024251445
 20
4564.117509423
 30
0.0
 11
2176.0024251445
 21
4564.117509423
 31
0.0
  0
LINE
  5
2EA
330
1F
100
AcDbEntity
  8
0
  6
Continuous
 62
     8
370
    15
100
AcDbLine
 10
2586.8264666778
 20
4094.117509423
 30
0.0
 11
2587.0012522204
 21
4094.117509423
 31
0.0
  0
LINE
  5
2EB
330
1F
100
AcDbEntity
  8
0
  6
Continuous
 62
     8
370
    15
100
AcDbLine
 10
2568.4505455996
 20
4063.317509423
 30
0.0
 11
2568.6253311423
 21
4063.317509423
 31
0.0
  0
LINE
  5
2EC
330
1F
100
AcDbEntity
  8
0
  6
Continuous
 62
     8
370
    15
100
AcDbLine
 10
2586.8264666778
 20
4164.117509423
 30
0.0
 11
2587.0012522204
 21
4164.117509423
 31
0.0
  0
LINE
  5
2ED
330
1F
100
AcDbEntity
  8
0
  6
Continuous
 62
     8
370
    15
100
AcDbLine
 10
2568.4505455996
 20
4194.917509423
 30
0.0
 11
2568.6253311423
 21
4194.917509423
 31
0.0
  0
LINE
  5
2EE
330
1F
100
AcDbEntity
  8
0
  6
Continuous
 62
     8
370
    15
100
AcDbLine
 10
2175.8889083175
 20
3643.3179233088
 30
0.0
 11
2156.2648850949
 21
3643.3646789406
 31
0.0
  0
LINE
  5
2EF
330
1F
100
AcDbEntity
  8
0
  6
Continuous
 62
     8
370
    15
100
AcDbLine
 10
2195.5129315401
 20
3643.2711676771
 30
0.0
 11
2175.8889083175
 21
3643.3179233088
 31
0.0
  0
LINE
  5
2F0
330
1F
100
AcDbEntity
  8
0
  6
Continuous
 62
     8
370
    15
100
AcDbLine
 10
2175.9622913009
 20
3674.1178358889
 30
0.0
 11
2137.9623991567
 21
3674.2083733359
 31
0.0
  0
LINE
  5
2F1
330
1F
100
AcDbEntity
  8
0
  6
Continuous
 62
     8
370
    15
100
AcDbLine
 10
2213.9621834451
 20
3674.0272984418
 30
0.0
 11
2175.9622913009
 21
3674.1178358889
 31
0.0
  0
LINE
  5
2F2
330
1F
100
AcDbEntity
  8
0
  6
Continuous
 62
     8
370
    15
100
AcDbLine
 10
2176.1290708086
 20
3744.1176372071
 30
0.0
 11
2138.1291786644
 21
3744.2081746542
 31
0.0
  0
LINE
  5
2F3
330
1F
100
AcDbEntity
  8
0
  6
Continuous
 62
     8
370
    15
100
AcDbLine
 10
2214.1289629528
 20
3744.0270997601
 30
0.0
 11
2176.1290708086
 21
3744.1176372071
 31
0.0
  0
LINE
  5
2F4
330
1F
100
AcDbEntity
  8
0
  6
Continuous
 62
     8
370
    15
100
AcDbLine
 10
2176.202453792
 20
3774.9175497872
 30
0.0
 11
2156.5784305694
 21
3774.9643054189
 31
0.0
  0
LINE
  5
2F5
330
1F
100
AcDbEntity
  8
0
  6
Continuous
 62
     8
370
    15
100
AcDbLine
 10
2195.8264770147
 20
3774.8707941554
 30
0.0
 11
2176.202453792
 21
3774.9175497872
 31
0.0
  0
LWPOLYLINE
  5
2F6
330
1F
100
AcDbEntity
  8
0
  6
Continuous
 62
     8
370
    15
100
AcDbPolyline
 90
       34
 70
   128
 43
0.0
 10
1435.5024251445
 20
3674.1172020481
 10
1435.6798230252
 20
3674.1279050748
 10
1436.2103603512
 20
3674.1385081702
 10
1437.0890836384
 20
3674.148912336
 10
1438.3077884841
 20
3674.1590204315
 10
1439.8550961697
 20
3674.1687380799
 10
1441.7165599001
 20
3674.1779745504
 10
1443.8747996901
 20
3674.1866436043
 10
1446.3096646362
 20
3674.1946643012
 10
1448.9984210605
 20
3674.2019617538
 10
1451.9159647687
 20
3674.2084678279
 10
1455.0350554413
 20
3674.2141217781
 10
1458.326570969
 20
3674.2188708148
 10
1461.7597793583
 20
3674.2226705976
 10
1465.3026256673
 20
3674.225485649
 10
1468.9220312948
 20
3674.2272896856
 10
1472.5842028255
 20
3674.2280658636
 10
1476.2549475506
 20
3674.2278069361
 10
1479.8999927157
 20
3674.2265153205
 10
1483.485305516
 20
3674.2242030763
 10
1486.9774108521
 20
3674.2208917923
 10
1490.3437038773
 20
3674.2166123851
 10
1493.5527544205
 20
3674.2114048105
 10
1496.5746004416
 20
3674.20531769
 10
1499.3810277784
 20
3674.1984078574
 10
1501.945833575
 20
3674.1907398282
 10
1504.2450709307
 20
3674.1823851965
 10
1506.2572724859
 20
3674.1734219673
 10
1507.9636508568
 20
3674.1639338278
 10
1509.3482740483
 20
3674.1540093664
 10
1510.3982142067
 20
3674.1437412449
 10
1511.1036683236
 20
3674.133225334
 10
1511.4580497641
 20
3674.1225598181
 10
1511.5024251355
 20
3674.1172044628
  0
LWPOLYLINE
  5
2F7
330
1F
100
AcDbEntity
  8
0
  6
Continuous
 62
     8
370
    15
100
AcDbPolyline
 90
       25
 70
   128
 43
0.0
 10
1453.8783462226
 20
3643.317333204
 10
1454.0534422993
 20
3643.3249664627
 10
1454.5756059355
 20
3643.3324635057
 10
1455.435519109
 20
3643.3396905481
 10
1456.6178366486
 20
3643.3465186232
 10
1458.10146007
 20
3643.3528258838
 10
1459.8599140779
 20
3643.3584997766
 10
1461.8618190191
 20
3643.363439051
 10
1464.0714508523
 20
3643.3675555655
 10
1466.4493786452
 20
3643.3707758607
 10
1468.95316822
 20
3643.3730424705
 10
1471.5381393923
 20
3643.3743149471
 10
1474.1581632905
 20
3643.3745705831
 10
1476.7664855259
 20
3643.3738048168
 10
1479.3165605264
 20
3643.3720313131
 10
1481.7628821433
 20
3643.3692817205
 10
1484.0617957094
 20
3643.3656051053
 10
1486.1722770576
 20
3643.3610670769
 10
1488.0566645983
 20
3643.3557486165
 10
1489.6813313911
 20
3643.3497446321
 10
1491.0172852187
 20
3643.3431622651
 10
1492.0406859533
 20
3643.3361189778
 10
1492.7332709845
 20
3643.328740458
 10
1493.0826811162
 20
3643.3211583754
 10
1493.1262358898
 20
3643.3170338041
  0
LWPOLYLINE
  5
2F8
330
1F
100
AcDbEntity
  8
0
  6
Continuous
 62
     8
370
    15
100
AcDbPolyline
 90
       34
 70
   128
 43
0.0
 10
1435.5024251445
 20
3744.1169039666
 10
1435.6798230252
 20
3744.1276069933
 10
1436.2103603512
 20
3744.1382100886
 10
1437.0890836384
 20
3744.1486142545
 10
1438.3077884841
 20
3744.1587223499
 10
1439.8550961697
 20
3744.1684399984
 10
1441.7165599001
 20
3744.1776764688
 10
1443.8747996901
 20
3744.1863455228
 10
1446.3096646362
 20
3744.1943662196
 10
1448.9984210605
 20
3744.2016636723
 10
1451.9159647687
 20
3744.2081697464
 10
1455.0350554413
 20
3744.2138236965
 10
1458.326570969
 20
3744.2185727333
 10
1461.7597793583
 20
3744.2223725161
 10
1465.3026256673
 20
3744.2251875675
 10
1468.9220312948
 20
3744.2269916041
 10
1472.5842028255
 20
3744.2277677821
 10
1476.2549475506
 20
3744.2275088545
 10
1479.8999927157
 20
3744.2262172389
 10
1483.485305516
 20
3744.2239049947
 10
1486.9774108521
 20
3744.2205937108
 10
1490.3437038773
 20
3744.2163143036
 10
1493.5527544205
 20
3744.2111067289
 10
1496.5746004416
 20
3744.2050196084
 10
1499.3810277784
 20
3744.1981097759
 10
1501.945833575
 20
3744.1904417466
 10
1504.2450709307
 20
3744.1820871149
 10
1506.2572724859
 20
3744.1731238857
 10
1507.9636508568
 20
3744.1636357463
 10
1509.3482740483
 20
3744.1537112848
 10
1510.3982142067
 20
3744.1434431633
 10
1511.1036683236
 20
3744.1329272525
 10
1511.4580497641
 20
3744.1222617366
 10
1511.5024251445
 20
3744.1169039666
  0
SPLINE
  5
2F9
330
1F
100
AcDbEntity
  8
0
  6
Continuous
 62
     8
370
    15
100
AcDbSpline
210
0.0
220
0.0
230
1.0
 70
     8
 71
     3
 72
    27
 73
    23
 74
     0
 42
0.00000001
 43
0.00000001
 40
0.0
 40
0.0
 40
0.0
 40
0.0
 40
0.0213510352562496
 40
0.069394818960412
 40
0.1189942520760808
 40
0.1684890123059007
 40
0.2193789256995108
 40
0.2727203772523804
 40
0.3275166979877538
 40
0.3831206858176545
 40
0.4403160010807788
 40
0.4927337912701629
 40
0.5465214926509842
 40
0.599991084451286
 40
0.6548862019450069
 40
0.7072437166136828
 40
0.7609318082164129
 40
0.8139342352215652
 40
0.8685378260241242
 40
0.9201222258814387
 40
0.9735650071381161
 40
1.0
 40
1.0
 40
1.0
 40
1.0
 10
1511.485660858088
 20
3694.668349135173
 30
0.0
 10
1511.489810693096
 20
3694.656575423981
 30
0.0
 10
1511.503298425453
 20
3694.618308682026
 30
0.0
 10
1511.392436855327
 20
3694.962227493927
 30
0.0
 10
1511.174779082731
 20
3695.65589374879
 30
0.0
 10
1510.857932889268
 20
3696.721776266955
 30
0.0
 10
1510.479634107324
 20
3698.110687072062
 30
0.0
 10
1510.068644135526
 20
3699.825930482267
 30
0.0
 10
1509.670532241639
 20
3701.8339100501
 30
0.0
 10
1509.333850586721
 20
3704.086859909235
 30
0.0
 10
1509.11213564424
 20
3706.448123013876
 30
0.0
 10
1509.025354819273
 20
3708.852948204543
 30
0.0
 10
1509.075300345568
 20
3711.210739307366
 30
0.0
 10
1509.258398744483
 20
3713.549434915795
 30
0.0
 10
1509.551876396416
 20
3715.753061097964
 30
0.0
 10
1509.924000846697
 20
3717.789826979072
 30
0.0
 10
1510.331126261175
 20
3719.589376702054
 30
0.0
 10
1510.740254469751
 20
3721.143388326795
 30
0.0
 10
1511.098536774835
 20
3722.362724002707
 30
0.0
 10
1511.360977594697
 20
3723.194249716068
 30
0.0
 10
1511.496626131255
 20
3723.60391383288
 30
0.0
 10
1511.489637566182
 20
3723.579076408881
 30
0.0
 10
1511.487324749259
 20
3723.570856636442
 30
0.0
  0
LWPOLYLINE
  5
2FA
330
1F
100
AcDbEntity
  8
0
  6
Continuous
 62
     8
370
    15
100
AcDbPolyline
 90
       25
 70
   128
 43
0.0
 10
1453.8783462226
 20
3774.9167728107
 10
1454.0534422993
 20
3774.9244060694
 10
1454.5756059355
 20
3774.9319031124
 10
1455.435519109
 20
3774.9391301548
 10
1456.6178366486
 20
3774.9459582299
 10
1458.10146007
 20
3774.9522654905
 10
1459.8599140779
 20
3774.9579393834
 10
1461.8618190191
 20
3774.9628786578
 10
1464.0714508523
 20
3774.9669951722
 10
1466.4493786452
 20
3774.9702154675
 10
1468.95316822
 20
3774.9724820772
 10
1471.5381393923
 20
3774.9737545538
 10
1474.1581632905
 20
3774.9740101898
 10
1476.7664855259
 20
3774.9732444235
 10
1479.3165605264
 20
3774.9714709199
 10
1481.7628821433
 20
3774.9687213272
 10
1484.0617957094
 20
3774.965044712
 10
1486.1722770576
 20
3774.9605066836
 10
1488.0566645983
 20
3774.9551882232
 10
1489.6813313911
 20
3774.9491842388
 10
1491.0172852187
 20
3774.9426018718
 10
1492.0406859533
 20
3774.9355585845
 10
1492.7332709845
 20
3774.9281800647
 10
1493.0826811162
 20
3774.9205979821
 10
1493.1261889218
 20
3774.9170973714
  0
SPLINE
  5
2FB
330
1F
100
AcDbEntity
  8
0
  6
Continuous
 62
     8
370
    15
100
AcDbSpline
210
0.0
220
0.0
230
1.0
 70
     8
 71
     3
 72
    22
 73
    18
 74
     0
 42
0.00000001
 43
0.00000001
 40
0.0
 40
0.0
 40
0.0
 40
0.0
 40
0.0259255823993281
 40
0.0792891367197939
 40
0.134490551723702
 40
0.1885454036853408
 40
0.2441999063033038
 40
0.3495024443603953
 40
0.401372551439912
 40
0.4548390833076026
 40
0.5566130851024647
 40
0.6106910277379918
 40
0.6665993504553624
 40
0.7744496737997674
 40
0.8767559073081167
 40
0.9773896772539977
 40
1.0
 40
1.0
 40
1.0
 40
1.0
 10
1514.451659863687
 20
3720.502250948703
 30
0.0
 10
1514.467415280908
 20
3720.538923281931
 30
0.0
 10
1514.515600637397
 20
3720.651079591418
 30
0.0
 10
1514.345505242376
 20
3720.27236169445
 30
0.0
 10
1514.07771951481
 20
3719.649815039922
 30
0.0
 10
1513.686569063859
 20
3718.67323250132
 30
0.0
 10
1513.108568293234
 20
3717.066073787252
 30
0.0
 10
1512.512534551618
 20
3715.003860335972
 30
0.0
 10
1512.086032518287
 20
3712.664984878701
 30
0.0
 10
1511.819305355206
 20
3710.21711531601
 30
0.0
 10
1511.845662013722
 20
3707.610222223223
 30
0.0
 10
1512.162129157943
 20
3705.13461425585
 30
0.0
 10
1512.641928536014
 20
3702.765821623152
 30
0.0
 10
1513.407793157967
 20
3700.288432654518
 30
0.0
 10
1514.180735704628
 20
3698.346874564199
 30
0.0
 10
1514.509410052632
 20
3697.606760206872
 30
0.0
 10
1514.489047218926
 20
3697.647937868566
 30
0.0
 10
1514.485311459815
 20
3697.655492309517
 30
0.0
  0
LINE
  5
2FC
330
1F
100
AcDbEntity
  8
0
  6
Continuous
 62
     8
370
    15
100
AcDbLine
 10
1523.5024251445
 20
3697.6170530074
 30
0.0
 11
1523.5024251445
 21
3720.6170530074
 31
0.0
  0
LINE
  5
2FD
330
1F
100
AcDbEntity
  8
0
  6
Continuous
 62
     8
370
    15
100
AcDbLine
 10
1525.4744517389
 20
3709.1457498299
 30
0.0
 11
1525.4744517389
 21
3718.9503863407
 31
0.0
  0
LINE
  5
2FE
330
1F
100
AcDbEntity
  8
0
  6
Continuous
 62
     8
370
    15
100
AcDbLine
 10
1525.4744517389
 20
3699.283719674
 30
0.0
 11
1525.4744517389
 21
3709.1457498299
 31
0.0
  0
LINE
  5
2FF
330
1F
100
AcDbEntity
  8
0
  6
Continuous
 62
     8
370
    15
100
AcDbLine
 10
2575.6965243629
 20
4164.117509423
 30
0.0
 11
2510.8264666778
 21
4164.117509423
 31
0.0
  0
LINE
  5
300
330
1F
100
AcDbEntity
  8
0
  6
Continuous
 62
     8
370
    15
100
AcDbLine
 10
2586.8264666778
 20
4164.117509423
 30
0.0
 11
2575.6965243629
 21
4164.117509423
 31
0.0
  0
LINE
  5
301
330
1F
100
AcDbEntity
  8
0
  6
Continuous
 62
     8
370
    15
100
AcDbLine
 10
2562.702785958
 20
4194.917509423
 30
0.0
 11
2529.2023877559
 21
4194.917509423
 31
0.0
  0
LINE
  5
302
330
1F
100
AcDbEntity
  8
0
  6
Continuous
 62
     8
370
    15
100
AcDbLine
 10
2568.4505455996
 20
4194.917509423
 30
0.0
 11
2562.702785958
 21
4194.917509423
 31
0.0
  0
LINE
  5
303
330
1F
100
AcDbEntity
  8
0
  6
Continuous
 62
     8
370
    15
100
AcDbLine
 10
2562.702785958
 20
4063.317509423
 30
0.0
 11
2529.2023877559
 21
4063.317509423
 31
0.0
  0
LINE
  5
304
330
1F
100
AcDbEntity
  8
0
  6
Continuous
 62
     8
370
    15
100
AcDbLine
 10
2568.4505455996
 20
4063.317509423
 30
0.0
 11
2562.702785958
 21
4063.317509423
 31
0.0
  0
LINE
  5
305
330
1F
100
AcDbEntity
  8
0
  6
Continuous
 62
     8
370
    15
100
AcDbLine
 10
2575.6965243629
 20
4094.117509423
 30
0.0
 11
2510.8264666778
 21
4094.117509423
 31
0.0
  0
LINE
  5
306
330
1F
100
AcDbEntity
  8
0
  6
Continuous
 62
     8
370
    15
100
AcDbLine
 10
2586.8264666778
 20
4094.117509423
 30
0.0
 11
2575.6965243629
 21
4094.117509423
 31
0.0
  0
LWPOLYLINE
  5
307
330
1F
100
AcDbEntity
  8
0
  6
Continuous
 62
     8
370
    15
100
AcDbPolyline
 90
       16
 70
   128
 43
0.0
 10
2510.8264666778
 20
4139.9923214682
 10
2510.2751549703
 20
4139.6920788073
 10
2508.9913832183
 20
4138.7151018408
 10
2507.8515941372
 20
4137.429650357
 10
2506.8924214861
 20
4135.8770398244
 10
2506.1446938629
 20
4134.1071724229
 10
2505.6324438489
 20
4132.176933147
 10
2505.372135581
 20
4130.1483614754
 10
2505.372135581
 20
4128.0866573706
 10
2505.6324438489
 20
4126.058085699
 10
2506.1446938629
 20
4124.1278464231
 10
2506.8924214861
 20
4122.3579790216
 10
2507.8515941372
 20
4120.805368489
 10
2508.9913832183
 20
4119.5199170052
 10
2510.2751549703
 20
4118.5429400387
 10
2510.8264666778
 20
4118.2426973778
  0
LWPOLYLINE
  5
308
330
1F
100
AcDbEntity
  8
0
  6
Continuous
 62
     8
370
    15
100
AcDbPolyline
 90
       26
 70
   128
 43
0.0
 10
2858.878660654
 20
3774.9170970039
 10
2858.9221691728
 20
3774.9129476393
 10
2859.2715793045
 20
3774.9053655568
 10
2859.9641643358
 20
3774.8979870369
 10
2860.9875650703
 20
3774.8909437497
 10
2862.3235188979
 20
3774.8843613826
 10
2863.9481856907
 20
3774.8783573983
 10
2865.8325732314
 20
3774.8730389379
 10
2867.9430545796
 20
3774.8685009095
 10
2870.2419681457
 20
3774.8648242943
 10
2872.6882897626
 20
3774.8620747016
 10
2875.2383647631
 20
3774.860301198
 10
2877.8466869985
 20
3774.8595354316
 10
2880.4667108967
 20
3774.8597910676
 10
2883.051682069
 20
3774.8610635442
 10
2885.5554716438
 20
3774.863330154
 10
2887.9333994367
 20
3774.8665504492
 10
2890.1430312699
 20
3774.8706669637
 10
2892.1449362111
 20
3774.8756062381
 10
2893.903390219
 20
3774.881280131
 10
2895.3870136404
 20
3774.8875873916
 10
2896.56933118
 20
3774.8944154666
 10
2897.4292443535
 20
3774.901642509
 10
2897.9514079897
 20
3774.909139552
 10
2898.1265040664
 20
3774.9167728107
 10
2898.1265040664
 20
3774.9167728107
  0
LWPOLYLINE
  5
309
330
1F
100
AcDbEntity
  8
0
  6
Continuous
 62
     8
370
    15
100
AcDbPolyline
 90
       35
 70
   128
 43
0.0
 10
2840.5024251529
 20
3744.1169063007
 10
2840.5468005249
 20
3744.1115461966
 10
2840.9011819654
 20
3744.1008806807
 10
2841.6066360823
 20
3744.0903647699
 10
2842.6565762407
 20
3744.0800966484
 10
2844.0411994322
 20
3744.0701721869
 10
2845.7475778031
 20
3744.0606840475
 10
2847.7597793583
 20
3744.0517208183
 10
2850.059016714
 20
3744.0433661866
 10
2852.6238225106
 20
3744.0356981573
 10
2855.4302498474
 20
3744.0287883248
 10
2858.4520958685
 20
3744.0227012043
 10
2861.6611464117
 20
3744.0174936296
 10
2865.0274394369
 20
3744.0132142224
 10
2868.519544773
 20
3744.0099029385
 10
2872.1048575733
 20
3744.0075906943
 10
2875.7499027384
 20
3744.0062990787
 10
2879.4206474635
 20
3744.0060401511
 10
2883.0828189942
 20
3744.0068163291
 10
2886.7022246217
 20
3744.0086203657
 10
2890.2450709308
 20
3744.0114354171
 10
2893.67827932
 20
3744.0152352
 10
2896.9697948477
 20
3744.0199842367
 10
2900.0888855203
 20
3744.0256381868
 10
2903.0064292285
 20
3744.0321442609
 10
2905.6951856528
 20
3744.0394417136
 10
2908.1300505989
 20
3744.0474624104
 10
2910.2882903889
 20
3744.0561314644
 10
2912.1497541193
 20
3744.0653679348
 10
2913.6970618049
 20
3744.0750855833
 10
2914.9157666507
 20
3744.0851936787
 10
2915.7944899378
 20
3744.0955978446
 10
2916.3250272638
 20
3744.10620094
 10
2916.5024251445
 20
3744.1169039666
 10
2916.5024251445
 20
3744.1169039666
  0
LWPOLYLINE
  5
30A
330
1F
100
AcDbEntity
  8
0
  6
Continuous
 62
     8
370
    15
100
AcDbPolyline
 90
       35
 70
   128
 43
0.0
 10
2840.5024251445
 20
3674.1172020481
 10
2840.5468005249
 20
3674.1118442782
 10
2840.9011819654
 20
3674.1011787622
 10
2841.6066360823
 20
3674.0906628514
 10
2842.6565762407
 20
3674.0803947299
 10
2844.0411994322
 20
3674.0704702685
 10
2845.7475778031
 20
3674.060982129
 10
2847.7597793583
 20
3674.0520188998
 10
2850.059016714
 20
3674.0436642681
 10
2852.6238225106
 20
3674.0359962388
 10
2855.4302498474
 20
3674.0290864063
 10
2858.4520958685
 20
3674.0229992858
 10
2861.6611464117
 20
3674.0177917111
 10
2865.0274394369
 20
3674.013512304
 10
2868.519544773
 20
3674.01020102
 10
2872.1048575733
 20
3674.0078887758
 10
2875.7499027384
 20
3674.0065971602
 10
2879.4206474635
 20
3674.0063382326
 10
2883.0828189942
 20
3674.0071144106
 10
2886.7022246217
 20
3674.0089184472
 10
2890.2450709308
 20
3674.0117334987
 10
2893.67827932
 20
3674.0155332815
 10
2896.9697948477
 20
3674.0202823182
 10
2900.0888855203
 20
3674.0259362683
 10
2903.0064292285
 20
3674.0324423425
 10
2905.6951856528
 20
3674.0397397951
 10
2908.1300505989
 20
3674.047760492
 10
2910.2882903889
 20
3674.0564295459
 10
2912.1497541193
 20
3674.0656660163
 10
2913.6970618049
 20
3674.0753836648
 10
2914.9157666507
 20
3674.0854917602
 10
2915.7944899378
 20
3674.0958959261
 10
2916.3250272638
 20
3674.1064990215
 10
2916.5024251445
 20
3674.1172020481
 10
2916.5024251445
 20
3674.1172020481
  0
SPLINE
  5
30B
330
1F
100
AcDbEntity
  8
0
  6
Continuous
 62
     8
370
    15
100
AcDbSpline
210
0.0
220
0.0
230
1.0
 70
     8
 71
     3
 72
    17
 73
    13
 74
     0
 42
0.00000001
 43
0.00000001
 40
0.0
 40
0.0
 40
0.0
 40
0.0
 40
0.1016230343166022
 40
0.205722413544932
 40
0.3073926339055814
 40
0.4114655932318273
 40
0.5163765760018297
 40
0.6240988349310325
 40
0.7296192841546905
 40
0.8386788738622325
 40
0.9388696084707235
 40
0.9999999999999999
 40
0.9999999999999999
 40
0.9999999999999999
 40
0.9999999999999999
 10
2842.958190401882
 20
3709.077833621114
 30
0.0
 10
2842.9463253278
 20
3708.328824088067
 30
0.0
 10
2842.922306052117
 20
3706.812553195916
 30
0.0
 10
2842.733907362758
 20
3704.601783375568
 30
0.0
 10
2842.45211258023
 20
3702.481395904437
 30
0.0
 10
2842.093975695768
 20
3700.510892517613
 30
0.0
 10
2841.689838798592
 20
3698.710242956949
 30
0.0
 10
2841.285027829447
 20
3697.164574533601
 30
0.0
 10
2840.919223971306
 20
3695.912893989052
 30
0.0
 10
2840.655407606383
 20
3695.075694780441
 30
0.0
 10
2840.512196941375
 20
3694.642032559742
 30
0.0
 10
2840.517267872331
 20
3694.66111725572
 30
0.0
 10
2840.519189430915
 20
3694.668349135173
 30
0.0
  0
SPLINE
  5
30C
330
1F
100
AcDbEntity
  8
0
  6
Continuous
 62
     8
370
    15
100
AcDbSpline
210
0.0
220
0.0
230
1.0
 70
     8
 71
     3
 72
    17
 73
    13
 74
     0
 42
0.00000001
 43
0.00000001
 40
0.0
 40
0.0
 40
0.0
 40
0.0
 40
0.0444643535519114
 40
0.1451795276342318
 40
0.2418838943020851
 40
0.3414766483149057
 40
0.444302845302089
 40
0.5499321337541554
 40
0.6599803923689705
 40
0.7731068834401814
 40
0.8849025899256665
 40
1.0
 40
1.0
 40
1.0
 40
1.0
 10
2840.517525539744
 20
3723.570856636442
 30
0.0
 10
2840.514226238156
 20
3723.579987240137
 30
0.0
 10
2840.503453765202
 20
3723.609799362105
 30
0.0
 10
2840.61867751165
 20
3723.25245588338
 30
0.0
 10
2840.84423793021
 20
3722.53185450805
 30
0.0
 10
2841.163012600168
 20
3721.456252667261
 30
0.0
 10
2841.544058691112
 20
3720.050287654903
 30
0.0
 10
2841.955163288551
 20
3718.320779567771
 30
0.0
 10
2842.353432475691
 20
3716.29521551846
 30
0.0
 10
2842.682778780258
 20
3714.034274308777
 30
0.0
 10
2842.91297162755
 20
3711.599924638811
 30
0.0
 10
2842.94297195749
 20
3709.926647028215
 30
0.0
 10
2842.958190401882
 20
3709.077833621114
 30
0.0
  0
LWPOLYLINE
  5
30D
330
1F
100
AcDbEntity
  8
0
  6
Continuous
 62
     8
370
    15
100
AcDbPolyline
 90
       25
 70
   128
 43
0.0
 10
2858.8786138463
 20
3643.3170341129
 10
2858.9221691728
 20
3643.3135080326
 10
2859.2715793045
 20
3643.30592595
 10
2859.9641643358
 20
3643.2985474302
 10
2860.9875650703
 20
3643.291504143
 10
2862.3235188979
 20
3643.2849217759
 10
2863.9481856907
 20
3643.2789177916
 10
2865.8325732314
 20
3643.2735993312
 10
2867.9430545796
 20
3643.2690613027
 10
2870.2419681457
 20
3643.2653846876
 10
2872.6882897626
 20
3643.2626350949
 10
2875.2383647631
 20
3643.2608615913
 10
2877.8466869985
 20
3643.2600958249
 10
2880.4667108967
 20
3643.2603514609
 10
2883.051682069
 20
3643.2616239375
 10
2885.5554716438
 20
3643.2638905473
 10
2887.9333994367
 20
3643.2671108425
 10
2890.1430312699
 20
3643.271227357
 10
2892.1449362111
 20
3643.2761666314
 10
2893.903390219
 20
3643.2818405243
 10
2895.3870136404
 20
3643.2881477848
 10
2896.56933118
 20
3643.2949758599
 10
2897.4292443535
 20
3643.3022029023
 10
2897.9514079897
 20
3643.3096999453
 10
2898.1265040664
 20
3643.317333204
  0
SPLINE
  5
30E
330
1F
100
AcDbEntity
  8
0
  6
Continuous
 62
     8
370
    15
100
AcDbSpline
210
0.0
220
0.0
230
1.0
 70
     8
 71
     3
 72
    16
 73
    12
 74
     0
 42
0.00000001
 43
0.00000001
 40
0.0
 40
0.0
 40
0.0
 40
0.0
 40
0.0038940904783732
 40
0.1063683606019157
 40
0.212269663484415
 40
0.21828878726906
 40
0.3263417440206027
 40
0.43771660868149
 40
0.647245763418277
 40
0.8478780044615091
 40
1.0
 40
1.0
 40
1.0
 40
1.0
 10
2840.152066606412
 20
3709.08349231659
 30
0.0
 10
2840.152043625569
 20
3709.107240151198
 30
0.0
 10
2840.151415896284
 20
3709.755920054527
 30
0.0
 10
2840.096166597781
 20
3711.052485519757
 30
0.0
 10
2839.943779701166
 20
3712.31812197746
 30
0.0
 10
2839.745714268457
 20
3713.569507731015
 30
0.0
 10
2839.499602798802
 20
3714.806742973855
 30
0.0
 10
2838.932628305267
 20
3716.927936138595
 30
0.0
 10
2838.201453312687
 20
3718.983021418357
 30
0.0
 10
2837.578738630917
 20
3720.439763954168
 30
0.0
 10
2837.560868025805
 20
3720.483471022465
 30
0.0
 10
2837.553161492957
 20
3720.502319290634
 30
0.0
  0
SPLINE
  5
30F
330
1F
100
AcDbEntity
  8
0
  6
Continuous
 62
     8
370
    15
100
AcDbSpline
210
0.0
220
0.0
230
1.0
 70
     8
 71
     3
 72
    14
 73
    10
 74
     0
 42
0.00000001
 43
0.00000001
 40
0.0
 40
0.0
 40
0.0
 40
0.0
 40
0.0587387613815625
 40
0.1662590648225009
 40
0.2747721149729304
 40
0.3868137199210929
 40
0.60051565175716
 40
0.8022182083816137
 40
1.0
 40
1.0
 40
1.0
 40
1.0
 10
2837.519539133741
 20
3697.65549283097
 30
0.0
 10
2837.517449449906
 20
3697.649737988937
 30
0.0
 10
2837.511534635364
 20
3697.633449006461
 30
0.0
 10
2837.66175586446
 20
3697.966944219747
 30
0.0
 10
2837.94637924404
 20
3698.630658018271
 30
0.0
 10
2838.46419287555
 20
3699.926150535998
 30
0.0
 10
2839.214736914334
 20
3702.140237046808
 30
0.0
 10
2839.986695101338
 20
3705.440041248739
 30
0.0
 10
2840.097304632858
 20
3707.876981128729
 30
0.0
 10
2840.152066606412
 20
3709.08349231659
 30
0.0
  0
LINE
  5
310
330
1F
100
AcDbEntity
  8
0
  6
Continuous
 62
     8
370
    15
100
AcDbLine
 10
2828.5024251445
 20
3709.0834923166
 30
0.0
 11
2828.5024251445
 21
3697.6170530074
 31
0.0
  0
LINE
  5
311
330
1F
100
AcDbEntity
  8
0
  6
Continuous
 62
     8
370
    15
100
AcDbLine
 10
2828.5024251445
 20
3720.6170530074
 30
0.0
 11
2828.5024251445
 21
3709.0834923166
 31
0.0
  0
LINE
  5
312
330
1F
100
AcDbEntity
  8
0
  6
Continuous
 62
     8
370
    15
100
AcDbLine
 10
2826.5303985501
 20
3718.9503863407
 30
0.0
 11
2826.5303985501
 21
3699.283719674
 31
0.0
  0
LINE
  5
313
330
1F
100
AcDbEntity
  8
0
  6
Continuous
 62
     8
370
    15
100
AcDbLine
 10
2515.5024251445
 20
4564.1171792387
 30
0.0
 11
2591.5024251445
 21
4564.1171792387
 31
0.0
  0
LINE
  5
314
330
1F
100
AcDbEntity
  8
0
  6
Continuous
 62
     8
370
    15
100
AcDbLine
 10
2533.8783462226
 20
4533.3171792387
 30
0.0
 11
2573.1265040664
 21
4533.3171792387
 31
0.0
  0
LINE
  5
315
330
1F
100
AcDbEntity
  8
0
  6
Continuous
 62
     8
370
    15
100
AcDbLine
 10
2515.5024251445
 20
4634.1171792387
 30
0.0
 11
2591.5024251445
 21
4634.1171792387
 31
0.0
  0
SPLINE
  5
316
330
1F
100
AcDbEntity
  8
0
  6
Continuous
 62
     8
370
    15
100
AcDbSpline
210
0.0
220
0.0
230
1.0
 70
     8
 71
     3
 72
    17
 73
    13
 74
     0
 42
0.00000001
 43
0.00000001
 40
0.0
 40
0.0
 40
0.0
 40
0.0
 40
0.101623034316605
 40
0.2057224135449367
 40
0.3073926339055857
 40
0.4114655932318377
 40
0.5163765760018382
 40
0.6240988349310436
 40
0.7296192841547036
 40
0.8386788738622477
 40
0.9388696084707407
 40
0.9999999999999999
 40
0.9999999999999999
 40
0.9999999999999999
 40
0.9999999999999999
 10
2517.958190401882
 20
4599.117179238659
 30
0.0
 10
2517.9463253278
 20
4598.368075554047
 30
0.0
 10
2517.922306052117
 20
4596.851614064484
 30
0.0
 10
2517.733907362759
 20
4594.639351467726
 30
0.0
 10
2517.45211258023
 20
4592.516599926404
 30
0.0
 10
2517.093975695768
 20
4590.542819277975
 30
0.0
 10
2516.689838798593
 20
4588.737969506081
 30
0.0
 10
2516.285027829446
 20
4587.187264794999
 30
0.0
 10
2515.919223971306
 20
4585.929752263309
 30
0.0
 10
2515.655407606383
 20
4585.086268972049
 30
0.0
 10
2515.512196941374
 20
4584.646888098197
 30
0.0
 10
2515.51726787233
 20
4584.662498306376
 30
0.0
 10
2515.519189430915
 20
4584.66841357712
 30
0.0
  0
SPLINE
  5
317
330
1F
100
AcDbEntity
  8
0
  6
Continuous
 62
     8
370
    15
100
AcDbSpline
210
0.0
220
0.0
230
1.0
 70
     8
 71
     3
 72
    17
 73
    13
 74
     0
 42
0.00000001
 43
0.00000001
 40
0.0
 40
0.0
 40
0.0
 40
0.0
 40
0.0444643535518943
 40
0.145179527634216
 40
0.241883894302071
 40
0.3414766483148949
 40
0.4443028453020791
 40
0.5499321337541507
 40
0.6599803923689659
 40
0.7731068834401804
 40
0.8849025899256671
 40
1.0
 40
1.0
 40
1.0
 40
1.0
 10
2515.517525539744
 20
4613.571044524409
 30
0.0
 10
2515.514226238156
 20
4613.581131809788
 30
0.0
 10
2515.503453765201
 20
4613.614067570898
 30
0.0
 10
2515.618677511651
 20
4613.261870575008
 30
0.0
 10
2515.844237930209
 20
4612.547277262093
 30
0.0
 10
2516.163012600168
 20
4611.477255947465
 30
0.0
 10
2516.544058691112
 20
4610.076407968132
 30
0.0
 10
2516.955163288552
 20
4608.351418005497
 30
0.0
 10
2517.35343247569
 20
4606.329620828425
 30
0.0
 10
2517.682778780259
 20
4604.071472393809
 30
0.0
 10
2517.91297162755
 20
4601.63893507363
 30
0.0
 10
2517.94297195749
 20
4599.965879839525
 30
0.0
 10
2517.958190401882
 20
4599.117179238659
 30
0.0
  0
LINE
  5
318
330
1F
100
AcDbEntity
  8
0
  6
Continuous
 62
     8
370
    15
100
AcDbLine
 10
2533.8783462226
 20
4664.9171792387
 30
0.0
 11
2573.1265040664
 21
4664.9171792387
 31
0.0
  0
SPLINE
  5
319
330
1F
100
AcDbEntity
  8
0
  6
Continuous
 62
     8
370
    15
100
AcDbSpline
210
0.0
220
0.0
230
1.0
 70
     8
 71
     3
 72
    16
 73
    12
 74
     0
 42
0.00000001
 43
0.00000001
 40
0.0
 40
0.0
 40
0.0
 40
0.0
 40
0.0039013455290182
 40
0.1065665346934443
 40
0.2126651414957539
 40
0.2186954794645896
 40
0.3269497488660577
 40
0.4385321151984774
 40
0.6484516421253871
 40
0.8494576795858497
 40
1.0
 40
1.0
 40
1.0
 40
1.0
 10
2515.152066606413
 20
4599.117179238659
 30
0.0
 10
2515.152043625574
 20
4599.140927033173
 30
0.0
 10
2515.151415896417
 20
4599.78960584134
 30
0.0
 10
2515.096166577113
 20
4601.085840982222
 30
0.0
 10
2514.943779745987
 20
4602.350525884539
 30
0.0
 10
2514.745714215102
 20
4603.600620193619
 30
0.0
 10
2514.499608192834
 20
4604.836185340358
 30
0.0
 10
2513.932601225489
 20
4606.953220537588
 30
0.0
 10
2513.201651861505
 20
4609.000866334381
 30
0.0
 10
2512.58017940991
 20
4610.445490084285
 30
0.0
 10
2512.562053587363
 20
4610.483483170558
 30
0.0
 10
2512.554291629941
 20
4610.499752816652
 30
0.0
  0
SPLINE
  5
31A
330
1F
100
AcDbEntity
  8
0
  6
Continuous
 62
     8
370
    15
100
AcDbSpline
210
0.0
220
0.0
230
1.0
 70
     8
 71
     3
 72
    14
 73
    10
 74
     0
 42
0.00000001
 43
0.00000001
 40
0.0
 40
0.0
 40
0.0
 40
0.0
 40
0.0604726406453656
 40
0.1677948829987705
 40
0.2761080433420045
 40
0.387943258599895
 40
0.6012515342085091
 40
0.8025825384242995
 40
1.0
 40
1.0
 40
1.0
 40
1.0
 10
2512.519356444707
 20
4587.655208839687
 30
0.0
 10
2512.517121996649
 20
4587.650170910768
 30
0.0
 10
2512.510922020156
 20
4587.63619204885
 30
0.0
 10
2512.661624678797
 20
4587.975576598164
 30
0.0
 10
2512.946415069632
 20
4588.645102128519
 30
0.0
 10
2513.464172974583
 20
4589.947053530481
 30
0.0
 10
2514.214743153394
 20
4592.167774623844
 30
0.0
 10
2514.98669361384
 20
4595.472723447277
 30
0.0
 10
2515.097304140279
 20
4597.910335341462
 30
0.0
 10
2515.152066606413
 20
4599.117179238659
 30
0.0
  0
LINE
  5
31B
330
1F
100
AcDbEntity
  8
0
  6
Continuous
 62
     8
370
    15
100
AcDbLine
 10
2503.5024251445
 20
4599.1171792387
 30
0.0
 11
2503.5024251445
 21
4587.6171792387
 31
0.0
  0
LINE
  5
31C
330
1F
100
AcDbEntity
  8
0
  6
Continuous
 62
     8
370
    15
100
AcDbLine
 10
2503.5024251445
 20
4610.6171792387
 30
0.0
 11
2503.5024251445
 21
4599.1171792387
 31
0.0
  0
LINE
  5
31D
330
1F
100
AcDbEntity
  8
0
  6
Continuous
 62
     8
370
    15
100
AcDbLine
 10
2501.5303985501
 20
4608.950512572
 30
0.0
 11
2501.5303985501
 21
4589.2838459053
 31
0.0
  0
LINE
  5
31E
330
1F
100
AcDbEntity
  8
0
  6
Continuous
 62
     8
370
    15
100
AcDbLine
 10
2214.0424511323
 20
3674.2083733359
 30
0.0
 11
2213.9626144157
 21
3674.2081831193
 31
0.0
  0
LINE
  5
31F
330
1F
100
AcDbEntity
  8
0
  6
Continuous
 62
     8
370
    15
100
AcDbLine
 10
2138.128748676
 20
3744.0277022202
 30
0.0
 11
2137.8758873362
 21
3744.0270997601
 31
0.0
  0
LINE
  5
320
330
1F
100
AcDbEntity
  8
0
  6
Continuous
 62
     8
370
    15
100
AcDbLine
 10
2195.7399651941
 20
3643.3646789406
 30
0.0
 11
2195.685768504
 21
3643.3645498131
 31
0.0
  0
LINE
  5
321
330
1F
100
AcDbEntity
  8
0
  6
Continuous
 62
     8
370
    15
100
AcDbLine
 10
2156.4063548682
 20
3774.8713373378
 30
0.0
 11
2156.1783732743
 21
3774.8707941554
 31
0.0
  0
LINE
  5
322
330
1F
100
AcDbEntity
  8
0
  6
Continuous
 62
     8
370
    15
100
AcDbLine
 10
2167.0276619304
 20
5654.093547849
 30
0.0
 11
2154.0024251445
 21
5654.093547849
 31
0.0
  0
LINE
  5
323
330
1F
100
AcDbEntity
  8
0
  6
Continuous
 62
     8
370
    15
100
AcDbLine
 10
2135.5024251445
 20
4599.117509423
 30
0.0
 11
2135.5024251445
 21
4589.117509423
 31
0.0
  0
LINE
  5
324
330
1F
100
AcDbEntity
  8
0
  6
Continuous
 62
     8
370
    15
100
AcDbLine
 10
2135.5024251445
 20
4609.117509423
 30
0.0
 11
2135.5024251445
 21
4599.117509423
 31
0.0
  0
LINE
  5
325
330
1F
100
AcDbEntity
  8
0
  6
Continuous
 62
     8
370
    15
100
AcDbLine
 10
2216.5024251445
 20
4589.117509423
 30
0.0
 11
2216.5024251445
 21
4609.117509423
 31
0.0
  0
LWPOLYLINE
  5
326
330
1F
100
AcDbEntity
  8
0
  6
Continuous
 62
     8
370
    15
100
AcDbPolyline
 90
       11
 70
   128
 43
0.0
 10
2152.3143479748
 20
4129.117509423
 10
2152.1830061472
 20
4130.884758795
 10
2151.7947209328
 20
4132.5747708891
 10
2151.1664622586
 20
4134.1136840675
 10
2150.3256880433
 20
4135.4342404396
 10
2149.3091441547
 20
4136.4787253552
 10
2148.1612584386
 20
4137.2014898115
 10
2146.9321990089
 20
4137.5709455336
 10
2145.6756816604
 20
4137.5709455336
 10
2144.4466222308
 20
4137.2014898115
 10
2144.2729307335
 20
4137.117509423
  0
LWPOLYLINE
  5
327
330
1F
100
AcDbEntity
  8
0
  6
Continuous
 62
     8
370
    15
100
AcDbPolyline
 90
       11
 70
   128
 43
0.0
 10
2144.2729307335
 20
4121.117509423
 10
2144.4466222308
 20
4121.0335290345
 10
2145.6756816604
 20
4120.6640733124
 10
2146.9321990089
 20
4120.6640733124
 10
2148.1612584386
 20
4121.0335290345
 10
2149.3091441547
 20
4121.7562934908
 10
2150.3256880433
 20
4122.8007784064
 10
2151.1664622586
 20
4124.1213347785
 10
2151.7947209328
 20
4125.6602479569
 10
2152.1830061472
 20
4127.350260051
 10
2152.3143479748
 20
4129.117509423
  0
LWPOLYLINE
  5
328
330
1F
100
AcDbEntity
  8
0
  6
Continuous
 62
     8
370
    15
100
AcDbPolyline
 90
       10
 70
   128
 43
0.0
 10
2154.4356683183
 20
4129.117509423
 10
2154.3078849112
 20
4127.2249969794
 10
2153.9291531152
 20
4125.4008848664
 10
2153.3131612841
 20
4123.7111012484
 10
2152.4821729676
 20
4122.2167193082
 10
2151.4662222488
 20
4120.9717499025
 10
2150.3020282334
 20
4120.0211894695
 10
2149.0316679267
 20
4119.3993937398
 10
2147.7010554599
 20
4119.1288360312
 10
2147.5151790945
 20
4119.1197770712
  0
LWPOLYLINE
  5
329
330
1F
100
AcDbEntity
  8
0
  6
Continuous
 62
     8
370
    15
100
AcDbPolyline
 90
       10
 70
   128
 43
0.0
 10
2147.3646005064
 20
4139.117509423
 10
2147.7010554599
 20
4139.1061828148
 10
2149.0316679267
 20
4138.8356251062
 10
2150.3020282334
 20
4138.2138293765
 10
2151.4662222488
 20
4137.2632689435
 10
2152.4821729676
 20
4136.0182995378
 10
2153.3131612841
 20
4134.5239175976
 10
2153.9291531152
 20
4132.8341339796
 10
2154.3078849112
 20
4131.0100218666
 10
2154.4356683183
 20
4129.117509423
  0
LWPOLYLINE
  5
32A
330
1F
100
AcDbEntity
  8
0
  6
Continuous
 62
     8
370
    15
100
AcDbPolyline
 90
       21
 70
   128
 43
0.0
 10
2207.7319195555
 20
4137.117509423
 10
2207.5582280582
 20
4137.2014898115
 10
2206.3291686286
 20
4137.5709455336
 10
2205.0726512801
 20
4137.5709455336
 10
2203.8435918504
 20
4137.2014898115
 10
2202.6957061343
 20
4136.4787253552
 10
2201.6791622457
 20
4135.4342404396
 10
2200.8383880304
 20
4134.1136840675
 10
2200.2101293562
 20
4132.5747708891
 10
2199.8218441418
 20
4130.884758795
 10
2199.6905023143
 20
4129.117509423
 10
2199.8218441418
 20
4127.350260051
 10
2200.2101293562
 20
4125.6602479569
 10
2200.8383880304
 20
4124.1213347785
 10
2201.6791622457
 20
4122.8007784064
 10
2202.6957061343
 20
4121.7562934908
 10
2203.8435918504
 20
4121.0335290345
 10
2205.0726512801
 20
4120.6640733124
 10
2206.3291686286
 20
4120.6640733124
 10
2207.5582280582
 20
4121.0335290345
 10
2207.7319195555
 20
4121.117509423
  0
LWPOLYLINE
  5
32B
330
1F
100
AcDbEntity
  8
0
  6
Continuous
 62
     8
370
    15
100
AcDbPolyline
 90
       18
 70
   128
 43
0.0
 10
2204.6402497826
 20
4119.117509423
 10
2203.6339319105
 20
4119.2192950042
 10
2202.3275300349
 20
4119.6675012359
 10
2201.1047158766
 20
4120.4572553852
 10
2200.0096851255
 20
4121.5600136795
 10
2199.0820150459
 20
4122.9359195608
 10
2198.3552340515
 20
4124.5352442057
 10
2197.8556099011
 20
4126.3001838546
 10
2197.6012003132
 20
4128.16694899
 10
2197.6012003132
 20
4130.068069856
 10
2197.8556099011
 20
4131.9348349914
 10
2198.3552340515
 20
4133.6997746403
 10
2199.0820150459
 20
4135.2990992852
 10
2200.0096851255
 20
4136.6750051665
 10
2201.1047158766
 20
4137.7777634608
 10
2202.3275300349
 20
4138.5675176101
 10
2203.6339319105
 20
4139.0157238418
 10
2204.4141121501
 20
4139.1123942919
  0
LINE
  5
32C
330
1F
100
AcDbEntity
  8
0
  6
Continuous
 62
     8
370
    15
100
AcDbLine
 10
2216.5024251445
 20
3699.117509423
 30
0.0
 11
2216.5024251445
 21
3719.117509423
 31
0.0
  0
LINE
  5
32D
330
1F
100
AcDbEntity
  8
0
  6
Continuous
 62
     8
370
    15
100
AcDbLine
 10
2135.5024251445
 20
3709.117509423
 30
0.0
 11
2135.5024251445
 21
3699.117509423
 31
0.0
  0
LINE
  5
32E
330
1F
100
AcDbEntity
  8
0
  6
Continuous
 62
     8
370
    15
100
AcDbLine
 10
2135.5024251445
 20
3719.117509423
 30
0.0
 11
2135.5024251445
 21
3709.117509423
 31
0.0
  0
DIMENSION
  5
331
330
1F
100
AcDbEntity
  8
0
  6
Continuous
 62
     7
370
     0
100
AcDbDimension
  2
_D
 10
3168.5024251445
 20
4961.5889146327
 30
0.0
 11
3168.5024251445
 21
4224.2692073656
 31
0.0
 70
    32
  1
1510
 71
     2
 42
-1.0
 73
     0
 74
     0
 75
     0
  3
SLDDIMSTYLE0
100
AcDbAlignedDimension
 13
2301.9420085897
 23
3451.1414693346
 33
0.0
 14
2184.6758242764
 24
4961.5889146327
 34
0.0
 50
90.0
100
AcDbRotatedDimension
  0
DIMENSION
  5
33C
330
1F
100
AcDbEntity
  8
0
  6
Continuous
 62
     7
370
     0
100
AcDbDimension
  2
_D_1
 10
1473.5024251445
 20
3561.46413816
 30
0.0
 11
1285.5235941066
 21
3303.7341542327
 31
0.0
 70
    36
  1
%%c140
 71
     1
 42
-1.0
 73
     0
 74
     0
 75
     0
  3
SLDDIMSTYLE1
100
AcDbRadialDimension
 15
1467.7535207322
 25
3491.7006083034
 35
0.0
 40
0.0
  0
DIMENSION
  5
347
330
1F
100
AcDbEntity
  8
0
  6
Continuous
 62
     7
370
     0
100
AcDbDimension
  2
_D_2
 10
1473.5024251445
 20
3877.0933371419
 30
0.0
 11
1285.5235941066
 21
4280.366430789
 31
0.0
 70
    36
  1
%%c180
 71
     1
 42
-1.0
 73
     0
 74
     0
 75
     0
  3
SLDDIMSTYLE1
100
AcDbRadialDimension
 15
1466.816852011
 25
3966.8446775881
 35
0.0
 40
0.0
  0
LINE
  5
351
330
1F
100
AcDbEntity
  8
0
  6
Continuous
 62
     7
370
    15
100
AcDbLine
 10
2788.9078941902
 20
2430.1836276678
 30
0.0
 11
2643.142293758
 21
2430.1836276678
 31
0.0
  0
LINE
  5
352
330
1F
100
AcDbEntity
  8
0
  6
Continuous
 62
     7
370
    15
100
AcDbLine
 10
2643.1500141412
 20
2414.1836276678
 30
0.0
 11
2788.8126773831
 21
2414.1836276678
 31
0.0
  0
LINE
  5
353
330
1F
100
AcDbEntity
  8
0
  6
Continuous
 62
     7
370
    15
100
AcDbLine
 10
2168.0024251445
 20
3055.0979629423
 30
0.0
 11
2168.0024251445
 21
2889.3273669918
 31
0.0
  0
LINE
  5
354
330
1F
100
AcDbEntity
  8
0
  6
Continuous
 62
     7
370
    15
100
AcDbLine
 10
2184.0024251445
 20
2889.3273669918
 30
0.0
 11
2184.0024251445
 21
3055.1888571039
 31
0.0
  0
LINE
  5
355
330
1F
100
AcDbEntity
  8
0
  6
Continuous
 62
     7
370
    15
100
AcDbLine
 10
1563.0969560988
 20
2414.1836276678
 30
0.0
 11
1708.862556531
 21
2414.1836276678
 31
0.0
  0
LINE
  5
356
330
1F
100
AcDbEntity
  8
0
  6
Continuous
 62
     7
370
    15
100
AcDbLine
 10
1708.8548361478
 20
2430.1836276678
 30
0.0
 11
1563.1921729059
 21
2430.1836276678
 31
0.0
  0
LINE
  5
357
330
1F
100
AcDbEntity
  8
0
  6
Continuous
 62
     7
370
    15
100
AcDbLine
 10
2184.0024251445
 20
1789.2692923933
 30
0.0
 11
2184.0024251445
 21
1955.0398883437
 31
0.0
  0
LINE
  5
358
330
1F
100
AcDbEntity
  8
0
  6
Continuous
 62
     7
370
    15
100
AcDbLine
 10
2168.0024251445
 20
1955.0398883437
 30
0.0
 11
2168.0024251445
 21
1789.1783982317
 31
0.0
  0
ARC
  5
359
330
1F
100
AcDbEntity
  8
0
  6
Continuous
 62
     7
370
    15
100
AcDbCircle
 10
2174.3471651537
 20
2420.1786053829
 30
0.0
 40
1.849999999999828
100
AcDbArc
 50
308.0477394287
 51
41.9699782121
  0
LINE
  5
35A
330
1F
100
AcDbEntity
  8
0
  6
Continuous
 62
     7
370
    15
100
AcDbLine
 10
2172.7007271448
 20
2421.0222533444
 30
0.0
 11
2172.83550496
 21
2421.2450871965
 31
0.0
  0
ARC
  5
35B
330
1F
100
AcDbEntity
  8
0
  6
Continuous
 62
     7
370
    15
100
AcDbCircle
 10
2174.3471651537
 20
2420.1786053829
 30
0.0
 40
3.629999999999987
100
AcDbArc
 50
344.4894222004
 51
21.9170881785
  0
ARC
  5
35C
330
1F
100
AcDbEntity
  8
0
  6
Continuous
 62
     7
370
    15
100
AcDbCircle
 10
2174.3471651537
 20
2420.1786053829
 30
0.0
 40
3.630000000000129
100
AcDbArc
 50
50.36084473900001
 51
116.4273537232
  0
LINE
  5
35D
330
1F
100
AcDbEntity
  8
0
  6
Continuous
 62
     7
370
    15
100
AcDbLine
 10
2168.0024251445
 20
2340.0724225859
 30
0.0
 11
2168.0024251445
 21
2114.2249822706
 31
0.0
  0
LINE
  5
35E
330
1F
100
AcDbEntity
  8
0
  6
Continuous
 62
     7
370
    15
100
AcDbLine
 10
2184.0024251445
 20
2114.2249822706
 30
0.0
 11
2184.0024251445
 21
2340.0724225859
 31
0.0
  0
LINE
  5
35F
330
1F
100
AcDbEntity
  8
0
  6
Continuous
 62
     7
370
    15
100
AcDbLine
 10
1888.142293758
 20
2414.1836276678
 30
0.0
 11
2093.8912200626
 21
2414.1836276678
 31
0.0
  0
LINE
  5
360
330
1F
100
AcDbEntity
  8
0
  6
Continuous
 62
     7
370
    15
100
AcDbLine
 10
2093.8912200626
 20
2430.1836276678
 30
0.0
 11
1888.1500141412
 21
2430.1836276678
 31
0.0
  0
LINE
  5
361
330
1F
100
AcDbEntity
  8
0
  6
Continuous
 62
     7
370
    15
100
AcDbLine
 10
2184.0024251445
 20
2504.2948327497
 30
0.0
 11
2184.0024251445
 21
2730.1422730649
 31
0.0
  0
LINE
  5
362
330
1F
100
AcDbEntity
  8
0
  6
Continuous
 62
     7
370
    15
100
AcDbLine
 10
2168.0024251445
 20
2730.1422730649
 30
0.0
 11
2168.0024251445
 21
2504.2948327497
 31
0.0
  0
LINE
  5
363
330
1F
100
AcDbEntity
  8
0
  6
Continuous
 62
     7
370
    15
100
AcDbLine
 10
2463.862556531
 20
2430.1836276678
 30
0.0
 11
2258.1136302264
 21
2430.1836276678
 31
0.0
  0
LINE
  5
364
330
1F
100
AcDbEntity
  8
0
  6
Continuous
 62
     7
370
    15
100
AcDbLine
 10
2258.1136302264
 20
2414.1836276678
 30
0.0
 11
2463.8548361478
 21
2414.1836276678
 31
0.0
  0
CIRCLE
  5
365
330
1F
100
AcDbEntity
  8
0
  6
Continuous
 62
     7
370
    15
100
AcDbCircle
 10
2176.3974751307
 20
1719.6836276678
 30
0.0
 40
69.99999999999984
  0
CIRCLE
  5
366
330
1F
100
AcDbEntity
  8
0
  6
Continuous
 62
     7
370
    15
100
AcDbCircle
 10
2175.6073751583
 20
3124.6836276678
 30
0.0
 40
70.00000000000014
  0
CIRCLE
  5
367
330
1F
100
AcDbEntity
  8
0
  6
Continuous
 62
     7
370
    15
100
AcDbCircle
 10
2176.0024251445
 20
2044.6836276678
 30
0.0
 40
70.00000000000017
  0
CIRCLE
  5
368
330
1F
100
AcDbEntity
  8
0
  6
Continuous
 62
     7
370
    15
100
AcDbCircle
 10
2176.0024251445
 20
2799.6836276678
 30
0.0
 40
69.99999999999966
  0
CIRCLE
  5
369
330
1F
100
AcDbEntity
  8
0
  6
Continuous
 62
     7
370
    15
100
AcDbCircle
 10
1803.1783836112
 20
2795.007669201
 30
0.0
 40
70.0000000000004
  0
CIRCLE
  5
36A
330
1F
100
AcDbEntity
  8
0
  6
Continuous
 62
     7
370
    15
100
AcDbCircle
 10
2548.8264666778
 20
2049.3595861345
 30
0.0
 40
69.99999999999969
  0
CIRCLE
  5
36B
330
1F
100
AcDbEntity
  8
0
  6
Continuous
 62
     7
370
    15
100
AcDbCircle
 10
2549.0012522204
 20
2795.1824547437
 30
0.0
 40
89.99999999999976
  0
ARC
  5
36C
330
1F
100
AcDbEntity
  8
0
  6
Continuous
 62
     7
370
    15
100
AcDbCircle
 10
1803.1783836112
 20
2795.007669201
 30
0.0
 40
90.00000000000024
100
AcDbArc
 50
225.0
 51
309.9003110858
  0
ARC
  5
36D
330
1F
100
AcDbEntity
  8
0
  6
Continuous
 62
     7
370
    15
100
AcDbCircle
 10
1803.1783836112
 20
2795.007669201
 30
0.0
 40
90.00000000000024
100
AcDbArc
 50
320.0996889142
 51
225.0
  0
ARC
  5
36E
330
1F
100
AcDbEntity
  8
0
  6
Continuous
 62
     7
370
    15
100
AcDbCircle
 10
2176.0024251445
 20
2799.6836276678
 30
0.0
 40
90.00000000000054
100
AcDbArc
 50
275.0996889142
 51
264.9003110858
  0
CIRCLE
  5
36F
330
1F
100
AcDbEntity
  8
0
  6
Continuous
 62
     7
370
    15
100
AcDbCircle
 10
2878.5024251445
 20
2421.6501627747
 30
0.0
 40
90.0
  0
ARC
  5
370
330
1F
100
AcDbEntity
  8
0
  6
Continuous
 62
     7
370
    15
100
AcDbCircle
 10
2176.0024251445
 20
2044.6836276678
 30
0.0
 40
90.00000000000013
100
AcDbArc
 50
95.0996889142
 51
84.9003110858
  0
CIRCLE
  5
371
330
1F
100
AcDbEntity
  8
0
  6
Continuous
 62
     7
370
    15
100
AcDbCircle
 10
2553.5024251445
 20
2422.1403724214
 30
0.0
 40
90.0
  0
CIRCLE
  5
372
330
1F
100
AcDbEntity
  8
0
  6
Continuous
 62
     7
370
    15
100
AcDbCircle
 10
1803.0035980686
 20
2049.1848005919
 30
0.0
 40
90.00000000000024
  0
ARC
  5
373
330
1F
100
AcDbEntity
  8
0
  6
Continuous
 62
     7
370
    15
100
AcDbCircle
 10
2548.8264666778
 20
2049.3595861345
 30
0.0
 40
90.00000000000014
100
AcDbArc
 50
140.0996889142
 51
129.9003110858
  0
CIRCLE
  5
374
330
1F
100
AcDbEntity
  8
0
  6
Continuous
 62
     7
370
    15
100
AcDbCircle
 10
1473.5024251445
 20
2422.7170925608
 30
0.0
 40
90.0
  0
ARC
  5
375
330
1F
100
AcDbEntity
  8
0
  6
Continuous
 62
     7
370
    15
100
AcDbCircle
 10
2176.3593852525
 20
3124.6836276678
 30
0.0
 40
90.0
100
AcDbArc
 50
180.0
 51
264.6721189426
  0
ARC
  5
376
330
1F
100
AcDbEntity
  8
0
  6
Continuous
 62
     7
370
    15
100
AcDbCircle
 10
2176.3593852525
 20
3124.6836276678
 30
0.0
 40
90.0
100
AcDbArc
 50
274.8715778479
 51
180.0
  0
CIRCLE
  5
377
330
1F
100
AcDbEntity
  8
0
  6
Continuous
 62
     7
370
    15
100
AcDbCircle
 10
1798.5024251445
 20
2422.2268829141
 30
0.0
 40
90.0
  0
ARC
  5
378
330
1F
100
AcDbEntity
  8
0
  6
Continuous
 62
     7
370
    15
100
AcDbCircle
 10
2175.6454650365
 20
1719.6836276678
 30
0.0
 40
89.99999999999987
100
AcDbArc
 50
0.0
 51
84.6721189426
  0
ARC
  5
379
330
1F
100
AcDbEntity
  8
0
  6
Continuous
 62
     7
370
    15
100
AcDbCircle
 10
2175.6454650365
 20
1719.6836276678
 30
0.0
 40
90.00000000000004
100
AcDbArc
 50
94.8715778479
 51
0.0
  0
LINE
  5
37A
330
1F
100
AcDbEntity
  8
0
  6
Continuous
 62
     7
370
    15
100
AcDbLine
 10
2228.4069608198
 20
2358.4653834935
 30
0.0
 11
2493.9964490157
 21
2092.8758952976
 31
0.0
  0
LINE
  5
37B
330
1F
100
AcDbEntity
  8
0
  6
Continuous
 62
     7
370
    15
100
AcDbLine
 10
2505.3101575147
 20
2104.1896037966
 30
0.0
 11
2239.7206693188
 21
2369.7790919925
 31
0.0
  0
LINE
  5
37C
330
1F
100
AcDbEntity
  8
0
  6
Continuous
 62
     7
370
    15
100
AcDbLine
 10
2239.7206693188
 20
2474.5881633431
 30
0.0
 11
2491.2704105029
 21
2726.1379045272
 31
0.0
  0
LINE
  5
37D
330
1F
100
AcDbEntity
  8
0
  6
Continuous
 62
     7
370
    15
100
AcDbLine
 10
2479.9567020039
 20
2737.4516130262
 30
0.0
 11
2228.4069608198
 21
2485.9018718421
 31
0.0
  0
LINE
  5
37E
330
1F
100
AcDbEntity
  8
0
  6
Continuous
 62
     7
370
    15
100
AcDbLine
 10
2112.2841809702
 20
2369.7790919925
 30
0.0
 11
1860.7344397861
 21
2118.2293508083
 31
0.0
  0
LINE
  5
37F
330
1F
100
AcDbEntity
  8
0
  6
Continuous
 62
     7
370
    15
100
AcDbLine
 10
1872.0481482851
 20
2106.9156423093
 30
0.0
 11
2123.5978894692
 21
2358.4653834935
 31
0.0
  0
LINE
  5
380
330
1F
100
AcDbEntity
  8
0
  6
Continuous
 62
     7
370
    15
100
AcDbLine
 10
2123.5978894692
 20
2485.9018718421
 30
0.0
 11
1858.0084012733
 21
2751.491360038
 31
0.0
  0
LINE
  5
381
330
1F
100
AcDbEntity
  8
0
  6
Continuous
 62
     7
370
    15
100
AcDbLine
 10
1846.6946927743
 20
2740.177651539
 30
0.0
 11
2112.2841809702
 21
2474.5881633431
 31
0.0
  0
ARC
  5
382
330
1F
100
AcDbEntity
  8
0
  6
Continuous
 62
     7
370
    15
100
AcDbCircle
 10
2180.9937098091
 20
2422.4787164628
 30
0.0
 40
0.7500000000001928
100
AcDbArc
 50
273.3834345876
 51
93.3834345876
  0
ARC
  5
383
330
1F
100
AcDbEntity
  8
0
  6
Continuous
 62
     7
370
    15
100
AcDbCircle
 10
2171.0111404799
 20
2421.8885388727
 30
0.0
 40
0.7500000000002197
100
AcDbArc
 50
93.3834345876
 51
273.3834345877
  0
LINE
  5
384
330
1F
100
AcDbEntity
  8
0
  6
Continuous
 62
     7
370
    15
100
AcDbLine
 10
2180.9494464898
 20
2423.2274091625
 30
0.0
 11
2170.9668771606
 21
2422.6372315724
 31
0.0
  0
LINE
  5
385
330
1F
100
AcDbEntity
  8
0
  6
Continuous
 62
     7
370
    15
100
AcDbLine
 10
2171.0554037992
 20
2421.139846173
 30
0.0
 11
2181.0379731284
 21
2421.7300237632
 31
0.0
  0
CIRCLE
  5
386
330
1F
100
AcDbEntity
  8
0
  6
Continuous
 62
     7
370
    15
100
AcDbCircle
 10
2170.7474236488
 20
2415.8416660638
 30
0.0
 40
1.125000000000091
  0
CIRCLE
  5
387
330
1F
100
AcDbEntity
  8
0
  6
Continuous
 62
     7
370
    15
100
AcDbCircle
 10
2169.307900212
 20
2417.8856260133
 30
0.0
 40
1.124999999999719
  0
CIRCLE
  5
388
330
1F
100
AcDbEntity
  8
0
  6
Continuous
 62
     7
370
    15
100
AcDbCircle
 10
2170.0276619304
 20
2416.8636460385
 30
0.0
 40
3.000000000000095
  0
SPLINE
  5
389
330
1F
100
AcDbEntity
  8
0
  6
Continuous
 62
     7
370
    15
100
AcDbSpline
210
0.0
220
0.0
230
1.0
 70
     8
 71
     3
 72
    10
 73
     6
 74
     0
 42
0.00000001
 43
0.00000001
 40
0.0
 40
0.0
 40
0.0
 40
0.0
 40
0.3820626568101703
 40
0.7638295759261815
 40
1.0
 40
1.0
 40
1.0
 40
1.0
 10
2176.002425144495
 20
3054.083627667766
 30
0.0
 10
2175.772129559044
 20
3054.107280627821
 30
0.0
 10
2175.311716649702
 20
3054.154568239226
 30
0.0
 10
2174.756020099121
 20
3054.440607101239
 30
0.0
 10
2174.519100019655
 20
3054.726655431377
 30
0.0
 10
2174.428551169912
 20
3054.835980682843
 30
0.0
  0
SPLINE
  5
38A
330
1F
100
AcDbEntity
  8
0
  6
Continuous
 62
     7
370
    15
100
AcDbSpline
210
0.0
220
0.0
230
1.0
 70
     8
 71
     3
 72
    10
 73
     6
 74
     0
 42
0.00000001
 43
0.00000001
 40
0.0
 40
0.0
 40
0.0
 40
0.0
 40
0.2077827196591937
 40
0.6404320735708102
 40
0.9999999999999999
 40
0.9999999999999999
 40
0.9999999999999999
 40
0.9999999999999999
 10
2177.472159803624
 20
3054.724682697522
 30
0.0
 10
2177.395780383624
 20
3054.639793419037
 30
0.0
 10
2177.160362200585
 20
3054.378145979186
 30
0.0
 10
2176.636442161132
 20
3054.141190764693
 30
0.0
 10
2176.200354569749
 20
3054.101597896311
 30
0.0
 10
2176.002425144495
 20
3054.083627667767
 30
0.0
  0
SPLINE
  5
38B
330
1F
100
AcDbEntity
  8
0
  6
Continuous
 62
     7
370
    15
100
AcDbSpline
210
0.0
220
0.0
230
1.0
 70
     8
 71
     3
 72
    10
 73
     6
 74
     0
 42
0.00000001
 43
0.00000001
 40
0.0
 40
0.0
 40
0.0
 40
0.0
 40
0.3820626568098213
 40
0.7638295759254852
 40
1.0
 40
1.0
 40
1.0
 40
1.0
 10
2176.00242514451
 20
1790.283627667766
 30
0.0
 10
2176.23272072996
 20
1790.259974707712
 30
0.0
 10
2176.693133639302
 20
1790.212687096307
 30
0.0
 10
2177.248830189884
 20
1789.926648234293
 30
0.0
 10
2177.48575026935
 20
1789.640599904155
 30
0.0
 10
2177.576299119094
 20
1789.531274652689
 30
0.0
  0
SPLINE
  5
38C
330
1F
100
AcDbEntity
  8
0
  6
Continuous
 62
     7
370
    15
100
AcDbSpline
210
0.0
220
0.0
230
1.0
 70
     8
 71
     3
 72
    10
 73
     6
 74
     0
 42
0.00000001
 43
0.00000001
 40
0.0
 40
0.0
 40
0.0
 40
0.0
 40
0.2077827196594189
 40
0.6404320735709118
 40
1.0
 40
1.0
 40
1.0
 40
1.0
 10
2174.53269048538
 20
1789.642572638011
 30
0.0
 10
2174.609069905381
 20
1789.727461916495
 30
0.0
 10
2174.84448808842
 20
1789.989109356346
 30
0.0
 10
2175.368408127873
 20
1790.22606457084
 30
0.0
 10
2175.804495719255
 20
1790.265657439221
 30
0.0
 10
2176.00242514451
 20
1790.283627667766
 30
0.0
  0
ARC
  5
38D
330
1F
100
AcDbEntity
  8
0
  6
Continuous
 62
     7
370
    15
100
AcDbCircle
 10
2176.0024251445
 20
2422.1836276678
 30
0.0
 40
17.50000000000022
100
AcDbArc
 50
168.9405199638
 51
191.0594800362
  0
SPLINE
  5
38E
330
1F
100
AcDbEntity
  8
0
  6
Continuous
 62
     7
370
    15
100
AcDbSpline
210
0.0
220
0.0
230
1.0
 70
     8
 71
     3
 72
    14
 73
    10
 74
     0
 42
0.00000001
 43
0.00000001
 40
0.0
 40
0.0
 40
0.0
 40
0.0
 40
0.0048826143572582
 40
0.20549454883617
 40
0.406862085108788
 40
0.6025712858356957
 40
0.7950893640475416
 40
0.9913298290826078
 40
1.0
 40
1.0
 40
1.0
 40
1.0
 10
2174.461035338858
 20
2114.605822501162
 30
0.0
 10
2174.464205628025
 20
2114.61059933041
 30
0.0
 10
2174.597633561197
 20
2114.811641702268
 30
0.0
 10
2175.028585275982
 20
2115.072499365565
 30
0.0
 10
2175.694685564558
 20
2115.30424143186
 30
0.0
 10
2176.414737699144
 20
2115.284571064226
 30
0.0
 10
2177.053295274673
 20
2115.028294450688
 30
0.0
 10
2177.464773902388
 20
2114.759488530469
 30
0.0
 10
2177.589679461876
 20
2114.553610732496
 30
0.0
 10
2177.594964461087
 20
2114.544899639056
 30
0.0
  0
SPLINE
  5
38F
330
1F
100
AcDbEntity
  8
0
  6
Continuous
 62
     7
370
    15
100
AcDbSpline
210
0.0
220
0.0
230
1.0
 70
     8
 71
     3
 72
    14
 73
    10
 74
     0
 42
0.00000001
 43
0.00000001
 40
0.0
 40
0.0
 40
0.0
 40
0.0
 40
0.0048826143569039
 40
0.2054945488359541
 40
0.4068620851087114
 40
0.6025712858357551
 40
0.7950893640477351
 40
0.9913298290829382
 40
0.9999999999999999
 40
0.9999999999999999
 40
0.9999999999999999
 40
0.9999999999999999
 10
2177.543814950143
 20
2729.76143283437
 30
0.0
 10
2177.540644660975
 20
2729.756656005122
 30
0.0
 10
2177.407216727803
 20
2729.555613633264
 30
0.0
 10
2176.976265013019
 20
2729.294755969968
 30
0.0
 10
2176.310164724443
 20
2729.063013903673
 30
0.0
 10
2175.590112589857
 20
2729.082684271306
 30
0.0
 10
2174.951555014328
 20
2729.338960884846
 30
0.0
 10
2174.540076386613
 20
2729.607766805062
 30
0.0
 10
2174.415170827125
 20
2729.813644603036
 30
0.0
 10
2174.409885827914
 20
2729.822355696476
 30
0.0
  0
SPLINE
  5
390
330
1F
100
AcDbEntity
  8
0
  6
Continuous
 62
     7
370
    15
100
AcDbSpline
210
0.0
220
0.0
230
1.0
 70
     8
 71
     3
 72
    13
 73
     9
 74
     0
 42
0.00000001
 43
0.00000001
 40
0.0
 40
0.0
 40
0.0
 40
0.0
 40
0.1930532311813966
 40
0.3868335944157998
 40
0.5751688181920391
 40
0.760433155312253
 40
0.9492796262960268
 40
1.0
 40
1.0
 40
1.0
 40
1.0
 10
2498.290734672123
 20
2097.72898142183
 30
0.0
 10
2498.306313746762
 20
2097.965895294821
 30
0.0
 10
2498.337530574387
 20
2098.440615373295
 30
0.0
 10
2498.679847481969
 20
2099.079391731636
 30
0.0
 10
2499.193540261892
 20
2099.571951214045
 30
0.0
 10
2499.829555965964
 20
2099.849106829039
 30
0.0
 10
2500.360888133172
 20
2099.942218301922
 30
0.0
 10
2500.644139575146
 20
2099.865403605415
 30
0.0
 10
2500.704108720742
 20
2099.849140628299
 30
0.0
  0
SPLINE
  5
391
330
1F
100
AcDbEntity
  8
0
  6
Continuous
 62
     7
370
    15
100
AcDbSpline
210
0.0
220
0.0
230
1.0
 70
     8
 71
     3
 72
    13
 73
     9
 74
     0
 42
0.00000001
 43
0.00000001
 40
0.0
 40
0.0
 40
0.0
 40
0.0
 40
0.19305323118052
 40
0.3868335944140453
 40
0.5751688181894423
 40
0.7604331553088033
 40
0.9492796262917363
 40
1.0
 40
1.0
 40
1.0
 40
1.0
 10
1853.714115616891
 20
2746.638273913697
 30
0.0
 10
1853.698536542252
 20
2746.401360040706
 30
0.0
 10
1853.667319714627
 20
2745.926639962231
 30
0.0
 10
1853.325002807045
 20
2745.28786360389
 30
0.0
 10
1852.811310027122
 20
2744.795304121481
 30
0.0
 10
1852.17529432305
 20
2744.518148506487
 30
0.0
 10
1851.643962155836
 20
2744.425037033605
 30
0.0
 10
1851.360710713857
 20
2744.501851730114
 30
0.0
 10
1851.300741568255
 20
2744.518114707231
 30
0.0
  0
ARC
  5
392
330
1F
100
AcDbEntity
  8
0
  6
Continuous
 62
     7
370
    15
100
AcDbCircle
 10
2500.5644377091
 20
2097.6216151031
 30
0.0
 40
2.250000000000199
100
AcDbArc
 50
122.4448265944
 51
174.6476862841
  0
LWPOLYLINE
  5
393
330
1F
100
AcDbEntity
  8
0
  6
Continuous
 62
     7
370
    15
100
AcDbPolyline
 90
        3
 70
   128
 43
0.0
 10
2500.3545584025
 20
2099.8618049783
 10
2500.1758632284
 20
2099.8378077556
 10
2499.3573414885
 20
2099.5204091189
  0
LINE
  5
394
330
1F
100
AcDbEntity
  8
0
  6
Continuous
 62
     7
370
    15
100
AcDbLine
 10
2498.0651937186
 20
2097.5601376621
 30
0.0
 11
2498.0728281518
 21
2097.8262655704
 31
0.0
  0
ARC
  5
395
330
1F
100
AcDbEntity
  8
0
  6
Continuous
 62
     7
370
    15
100
AcDbCircle
 10
1851.4404125799
 20
2746.7456402324
 30
0.0
 40
2.250000000000199
100
AcDbArc
 50
302.4448265944
 51
354.647686283
  0
LWPOLYLINE
  5
396
330
1F
100
AcDbEntity
  8
0
  6
Continuous
 62
     7
370
    15
100
AcDbPolyline
 90
        3
 70
   128
 43
0.0
 10
1851.6502918866
 20
2744.5054503573
 10
1851.8289870606
 20
2744.5294475799
 10
1852.6475088005
 20
2744.8468462167
  0
LINE
  5
397
330
1F
100
AcDbEntity
  8
0
  6
Continuous
 62
     7
370
    15
100
AcDbLine
 10
1853.9396565704
 20
2746.8071176734
 30
0.0
 11
1853.9320221372
 21
2746.5409897652
 31
0.0
  0
ARC
  5
398
330
1F
100
AcDbEntity
  8
0
  6
Continuous
 62
     7
370
    15
100
AcDbCircle
 10
2176.0024251445
 20
2113.1836276678
 30
0.0
 40
2.250000000000238
100
AcDbArc
 50
41.1127241049
 51
138.8872758951
  0
LINE
  5
399
330
1F
100
AcDbEntity
  8
0
  6
Continuous
 62
     7
370
    15
100
AcDbLine
 10
2176.3016951307
 20
2114.8896281002
 30
0.0
 11
2175.7358651374
 21
2114.6831201357
 31
0.0
  0
LINE
  5
39A
330
1F
100
AcDbEntity
  8
0
  6
Continuous
 62
     7
370
    15
100
AcDbLine
 10
2176.5501938014
 20
2114.6814844171
 30
0.0
 11
2176.3016951307
 21
2114.8896281002
 31
0.0
  0
LINE
  5
39B
330
1F
100
AcDbEntity
  8
0
  6
Continuous
 62
     7
370
    15
100
AcDbLine
 10
2173.9808567506
 20
2114.6544305875
 30
0.0
 11
2174.0181116612
 21
2114.7043183003
 31
0.0
  0
ARC
  5
39C
330
1F
100
AcDbEntity
  8
0
  6
Continuous
 62
     7
370
    15
100
AcDbCircle
 10
2176.0024251445
 20
2731.1836276678
 30
0.0
 40
2.250000000000151
100
AcDbArc
 50
221.1127241049
 51
318.8872758951
  0
LINE
  5
39D
330
1F
100
AcDbEntity
  8
0
  6
Continuous
 62
     7
370
    15
100
AcDbLine
 10
2175.4546564876
 20
2729.6857709184
 30
0.0
 11
2175.7031551583
 21
2729.4776272354
 31
0.0
  0
LINE
  5
39E
330
1F
100
AcDbEntity
  8
0
  6
Continuous
 62
     7
370
    15
100
AcDbLine
 10
2175.7031551583
 20
2729.4776272354
 30
0.0
 11
2176.2689851516
 21
2729.6841351999
 31
0.0
  0
LINE
  5
39F
330
1F
100
AcDbEntity
  8
0
  6
Continuous
 62
     7
370
    15
100
AcDbLine
 10
2178.0239935384
 20
2729.7128247481
 30
0.0
 11
2177.9867386278
 21
2729.6629370352
 31
0.0
  0
ARC
  5
3A0
330
1F
100
AcDbEntity
  8
0
  6
Continuous
 62
     7
370
    15
100
AcDbCircle
 10
2176.0024251445
 20
2422.1836276678
 30
0.0
 40
5.200000000000247
100
AcDbArc
 50
11.5125526234
 51
138.8209262628
  0
ARC
  5
3A1
330
1F
100
AcDbEntity
  8
0
  6
Continuous
 62
     7
370
    15
100
AcDbCircle
 10
2176.0024251445
 20
2422.1836276678
 30
0.0
 40
5.200000000000101
100
AcDbArc
 50
231.2609434869
 51
355.2543165519
  0
LWPOLYLINE
  5
3A2
330
1F
100
AcDbEntity
  8
0
  6
Continuous
 62
     7
370
    15
100
AcDbPolyline
 90
        3
 70
   128
 43
0.0
 10
2171.5975529646
 20
2419.4200971217
 10
2171.0804613696
 20
2420.5060482811
 10
2170.9070439307
 20
2421.1457980643
  0
ARC
  5
3A3
330
1F
100
AcDbEntity
  8
0
  6
Continuous
 62
     7
370
    15
100
AcDbCircle
 10
2176.0024251445
 20
2422.1836276678
 30
0.0
 40
5.200000000000247
100
AcDbArc
 50
138.8209262628
 51
175.2543165519
  0
LWPOLYLINE
  5
3A4
330
1F
100
AcDbEntity
  8
0
  6
Continuous
 62
     7
370
    15
100
AcDbPolyline
 90
        3
 70
   128
 43
0.0
 10
2175.5500619101
 20
2421.4055740037
 10
2175.7141848287
 20
2421.3310330863
 10
2175.8161745228
 20
2421.3031103733
  0
ARC
  5
3A5
330
1F
100
AcDbEntity
  8
0
  6
Continuous
 62
     7
370
    15
100
AcDbCircle
 10
2176.0024251445
 20
2422.1836276678
 30
0.0
 40
3.500000000000319
100
AcDbArc
 50
195.7570597038
 51
270.0
  0
ARC
  5
3A6
330
1F
100
AcDbEntity
  8
0
  6
Continuous
 62
     7
370
    15
100
AcDbCircle
 10
2176.0024251445
 20
2422.1836276678
 30
0.0
 40
3.500000000000053
100
AcDbArc
 50
15.7570597038
 51
171.0098094714
  0
ARC
  5
3A7
330
1F
100
AcDbEntity
  8
0
  6
Continuous
 62
     7
370
    15
100
AcDbCircle
 10
2176.0024251445
 20
2422.1836276678
 30
0.0
 40
3.5
100
AcDbArc
 50
270.0
 51
351.0098094714
  0
ARC
  5
3A8
330
1F
100
AcDbEntity
  8
0
  6
Continuous
 62
     7
370
    15
100
AcDbCircle
 10
2176.0024251445
 20
2422.1836276678
 30
0.0
 40
4.750000000000025
100
AcDbArc
 50
270.0
 51
354.2987143002
  0
ARC
  5
3A9
330
1F
100
AcDbEntity
  8
0
  6
Continuous
 62
     7
370
    15
100
AcDbCircle
 10
2176.0024251445
 20
2422.1836276678
 30
0.0
 40
4.75000000000007
100
AcDbArc
 50
12.468154875
 51
174.2987143002
  0
ARC
  5
3AA
330
1F
100
AcDbEntity
  8
0
  6
Continuous
 62
     7
370
    15
100
AcDbCircle
 10
2176.0024251445
 20
2422.1836276678
 30
0.0
 40
4.749999999999859
100
AcDbArc
 50
192.468154875
 51
270.0
  0
ARC
  5
3AB
330
1F
100
AcDbEntity
  8
0
  6
Continuous
 62
     7
370
    15
100
AcDbCircle
 10
2176.0024251445
 20
2422.1836276678
 30
0.0
 40
5.0
100
AcDbArc
 50
192.0103611463
 51
270.0
  0
ARC
  5
3AC
330
1F
100
AcDbEntity
  8
0
  6
Continuous
 62
     7
370
    15
100
AcDbCircle
 10
2176.0024251445
 20
2422.1836276678
 30
0.0
 40
5.000000000000091
100
AcDbArc
 50
12.0103611463
 51
174.756508029
  0
ARC
  5
3AD
330
1F
100
AcDbEntity
  8
0
  6
Continuous
 62
     7
370
    15
100
AcDbCircle
 10
2176.0024251445
 20
2422.1836276678
 30
0.0
 40
5.00000000000005
100
AcDbArc
 50
270.0
 51
354.756508029
  0
CIRCLE
  5
3AE
330
1F
100
AcDbEntity
  8
0
  6
Continuous
 62
     7
370
    15
100
AcDbCircle
 10
2161.0024251445
 20
2422.1836276678
 30
0.0
 40
7.000000000000139
  0
CIRCLE
  5
3AF
330
1F
100
AcDbEntity
  8
0
  6
Continuous
 62
     7
370
    15
100
AcDbCircle
 10
2161.0024251445
 20
2422.1836276678
 30
0.0
 40
5.500000000000269
  0
CIRCLE
  5
3B0
330
1F
100
AcDbEntity
  8
0
  6
Continuous
 62
     7
370
    15
100
AcDbCircle
 10
2161.0024251445
 20
2422.1836276678
 30
0.0
 40
4.000000000000224
  0
LINE
  5
3B1
330
1F
100
AcDbEntity
  8
0
  6
Continuous
 62
     7
370
    15
100
AcDbLine
 10
2247.0019850023
 20
2422.4336276678
 30
0.0
 11
2248.5019941087
 21
2422.4336276678
 31
0.0
  0
ARC
  5
3B2
330
1F
100
AcDbEntity
  8
0
  6
Continuous
 62
     7
370
    15
100
AcDbCircle
 10
2176.0024251445
 20
2422.1836276678
 30
0.0
 40
71.00000000000003
100
AcDbArc
 50
0.2017461194
 51
359.7982538806
  0
LINE
  5
3B3
330
1F
100
AcDbEntity
  8
0
  6
Continuous
 62
     7
370
    15
100
AcDbLine
 10
2248.5019941087
 20
2421.9336276678
 30
0.0
 11
2247.0019850023
 21
2421.9336276678
 31
0.0
  0
ARC
  5
3B4
330
1F
100
AcDbEntity
  8
0
  6
Continuous
 62
     7
370
    15
100
AcDbCircle
 10
2176.0024251445
 20
2422.1836276678
 30
0.0
 40
72.49999999999963
100
AcDbArc
 50
0.197572045
 51
359.802427955
  0
ARC
  5
3B5
330
1F
100
AcDbEntity
  8
0
  6
Continuous
 62
     7
370
    15
100
AcDbCircle
 10
2176.0024251445
 20
2422.1836276678
 30
0.0
 40
5.25
100
AcDbArc
 50
232.2972277149
 51
270.0
  0
ARC
  5
3B6
330
1F
100
AcDbEntity
  8
0
  6
Continuous
 62
     7
370
    15
100
AcDbCircle
 10
2176.0024251445
 20
2422.1836276678
 30
0.0
 40
5.250000000000334
100
AcDbArc
 50
191.2972927499
 51
211.0670707334
  0
ARC
  5
3B7
330
1F
100
AcDbEntity
  8
0
  6
Continuous
 62
     7
370
    15
100
AcDbCircle
 10
2176.0024251445
 20
2422.1836276678
 30
0.0
 40
5.250000000000004
100
AcDbArc
 50
11.2972927499
 51
175.4695764253
  0
CIRCLE
  5
3B9
330
1F
100
AcDbEntity
  8
0
  6
Continuous
 62
     7
370
    15
100
AcDbCircle
 10
2176.0024251445
 20
2422.1836276678
 30
0.0
 40
82.5
  0
DIMENSION
  5
3BC
330
1F
100
AcDbEntity
  8
0
  6
Continuous
 62
     7
370
     0
100
AcDbDimension
  2
_D_3
 10
1383.5024251445
 20
1429.6836276678
 30
0.0
 11
2151.7145077977
 21
1429.6836276678
 31
0.0
 70
    32
  1
<>
 71
     2
 42
-1.0
 73
     0
 74
     0
 75
     0
  3
SLDDIMSTYLE0
100
AcDbAlignedDimension
 13
2968.5024251445
 23
2291.4339393761
 33
0.0
 14
1383.5024251445
 24
2291.4339393761
 34
0.0
100
AcDbRotatedDimension
  0
ENDSEC
  0
SECTION
  2
OBJECTS
  0
DICTIONARY
  5
C
330
0
100
AcDbDictionary
281
     1
  3
ACAD_COLOR
350
6C
  3
ACAD_GROUP
350
D
  3
ACAD_LAYOUT
350
1A
  3
ACAD_MATERIAL
350
6B
  3
ACAD_MLEADERSTYLE
350
436
  3
ACAD_MLINESTYLE
350
17
  3
ACAD_PLOTSETTINGS
350
19
  3
ACAD_PLOTSTYLENAME
350
E
  3
ACAD_SCALELIST
350
99
  3
ACAD_TABLESTYLE
350
92
  3
AcDbVariableDictionary
350
59
  0
DICTIONARY
  5
435
330
1F
100
AcDbDictionary
280
     1
281
     1
  0
DICTIONARY
  5
6C
102
{ACAD_REACTORS
330
C
102
}
330
C
100
AcDbDictionary
281
     1
  0
DICTIONARY
  5
D
102
{ACAD_REACTORS
330
C
102
}
330
C
100
AcDbDictionary
281
     1
  0
DICTIONARY
  5
1A
102
{ACAD_REACTORS
330
C
102
}
330
C
100
AcDbDictionary
281
     1
  3
Layout1
350
74
  3
Layout2
350
26
  3
Model
350
22
  0
DICTIONARY
  5
6B
102
{ACAD_REACTORS
330
C
102
}
330
C
100
AcDbDictionary
281
     1
  0
DICTIONARY
  5
436
102
{ACAD_REACTORS
330
C
102
}
330
C
100
AcDbDictionary
281
     1
  0
DICTIONARY
  5
17
102
{ACAD_REACTORS
330
C
102
}
330
C
100
AcDbDictionary
281
     1
  3
Standard
350
18
  0
DICTIONARY
  5
19
102
{ACAD_REACTORS
330
C
102
}
330
C
100
AcDbDictionary
281
     1
  0
ACDBDICTIONARYWDFLT
  5
E
102
{ACAD_REACTORS
330
C
102
}
330
C
100
AcDbDictionary
281
     1
  3
Normal
350
F
100
AcDbDictionaryWithDefault
340
F
  0
DICTIONARY
  5
99
102
{ACAD_REACTORS
330
C
102
}
330
C
100
AcDbDictionary
281
     1
  3
A0
350
3C7
  3
A1
350
3C8
  3
A2
350
3C9
  3
A3
350
3CA
  3
A4
350
3CB
  3
A5
350
3CC
  3
A6
350
3CD
  3
A7
350
3CE
  3
A8
350
3CF
  3
A9
350
3D0
  3
B0
350
3D1
  3
B1
350
3D2
  3
B2
350
3D3
  3
B3
350
3D4
  3
B4
350
3D5
  3
B5
350
3D6
  3
B6
350
3D7
  3
B7
350
3D8
  3
B8
350
3D9
  3
B9
350
3DA
  3
C0
350
3DB
  3
C1
350
3DC
  3
C2
350
3DD
  3
C3
350
3DE
  3
C4
350
3DF
  3
C5
350
3E0
  3
C6
350
3E1
  3
C7
350
3E2
  3
C8
350
3E3
  3
C9
350
3E4
  3
D0
350
3E5
  3
D1
350
3E6
  3
D2
350
3E7
  0
DICTIONARY
  5
92
102
{ACAD_REACTORS
330
C
102
}
330
C
100
AcDbDictionary
281
     1
  3
Standard
350
93
  0
DICTIONARY
  5
59
102
{ACAD_REACTORS
330
C
102
}
330
C
100
AcDbDictionary
281
     1
  3
CANNOSCALE
350
437
  3
CTABLESTYLE
350
98
  3
DIMASSOC
350
3EA
  3
HIDETEXT
350
5E
  0
LAYOUT
  5
74
102
{ACAD_REACTORS
330
1A
102
}
330
1A
100
AcDbPlotSettings
  1

  2
none_device
  4
ISO_C5_(229.00_x_162.00_MM)
  6

 40
0.0
 41
0.0
 42
0.0
 43
0.0
 44
229.0
 45
162.0
 46
0.0
 47
0.0
 48
0.0
 49
0.0
140
0.0
141
0.0
142
1.0
143
1.0
 70
   688
 72
     1
 73
     0
 74
     5
  7

 75
    16
 76
     0
 77
     2
 78
   300
147
1.0
148
0.0
149
0.0
100
AcDbLayout
  1
Layout1
 70
     1
 71
     1
 10
0.0
 20
0.0
 11
420.0
 21
297.0
 12
0.0
 22
0.0
 32
0.0
 14
1.000000000000000E+20
 24
1.000000000000000E+20
 34
1.000000000000000E+20
 15
-1.000000000000000E+20
 25
-1.000000000000000E+20
 35
-1.000000000000000E+20
146
0.0
 13
0.0
 23
0.0
 33
0.0
 16
1.0
 26
0.0
 36
0.0
 17
0.0
 27
1.0
 37
0.0
 76
     0
330
73
  0
LAYOUT
  5
26
102
{ACAD_REACTORS
330
1A
102
}
330
1A
100
AcDbPlotSettings
  1

  2
none_device
  4
ISO_C5_(229.00_x_162.00_MM)
  6

 40
0.0
 41
0.0
 42
0.0
 43
0.0
 44
229.0
 45
162.0
 46
0.0
 47
0.0
 48
0.0
 49
0.0
140
0.0
141
0.0
142
1.0
143
1.0
 70
   688
 72
     1
 73
     0
 74
     5
  7

 75
    16
 76
     0
 77
     2
 78
   300
147
1.0
148
0.0
149
0.0
100
AcDbLayout
  1
Layout2
 70
     1
 71
     2
 10
0.0
 20
0.0
 11
0.0
 21
0.0
 12
0.0
 22
0.0
 32
0.0
 14
0.0
 24
0.0
 34
0.0
 15
0.0
 25
0.0
 35
0.0
146
0.0
 13
0.0
 23
0.0
 33
0.0
 16
1.0
 26
0.0
 36
0.0
 17
0.0
 27
1.0
 37
0.0
 76
     0
330
23
  0
LAYOUT
  5
22
102
{ACAD_REACTORS
330
1A
102
}
330
1A
100
AcDbPlotSettings
  1

  2
none_device
  4
ISO_C5_(229.00_x_162.00_MM)
  6

 40
0.0
 41
0.0
 42
0.0
 43
0.0
 44
229.0
 45
162.0
 46
0.0
 47
0.0
 48
0.0
 49
0.0
140
0.0
141
0.0
142
1.0
143
1.0
 70
 11952
 72
     1
 73
     0
 74
     0
  7

 75
    16
 76
     0
 77
     2
 78
   300
147
1.0
148
0.0
149
0.0
100
AcDbLayout
  1
Model
 70
     1
 71
     0
 10
0.0
 20
0.0
 11
4200.0
 21
5940.0
 12
0.0
 22
0.0
 32
0.0
 14
1.5768713071
 24
4.2956031328
 34
0.0
 15
4201.5768713071
 25
5944.2956031328
 35
0.1
146
0.0
 13
0.0
 23
0.0
 33
0.0
 16
1.0
 26
0.0
 36
0.0
 17
0.0
 27
1.0
 37
0.0
 76
     0
330
1F
331
97
  0
MLINESTYLE
  5
18
102
{ACAD_REACTORS
330
17
102
}
330
17
100
AcDbMlineStyle
  2
Standard
 70
     0
  3

 62
   256
 51
90.0
 52
90.0
 71
     2
 49
0.5
 62
   256
  6
BYLAYER
 49
-0.5
 62
   256
  6
BYLAYER
  0
ACDBPLACEHOLDER
  5
F
102
{ACAD_REACTORS
330
E
102
}
330
E
  0
SCALE
  5
3C7
102
{ACAD_REACTORS
330
99
102
}
330
99
100
AcDbScale
 70
     0
300
1:1
140
1.0
141
1.0
290
     1
  0
SCALE
  5
3C8
102
{ACAD_REACTORS
330
99
102
}
330
99
100
AcDbScale
 70
     0
300
1:2
140
1.0
141
2.0
290
     0
  0
SCALE
  5
3C9
102
{ACAD_REACTORS
330
99
102
}
330
99
100
AcDbScale
 70
     0
300
1:4
140
1.0
141
4.0
290
     0
  0
SCALE
  5
3CA
102
{ACAD_REACTORS
330
99
102
}
330
99
100
AcDbScale
 70
     0
300
1:5
140
1.0
141
5.0
290
     0
  0
SCALE
  5
3CB
102
{ACAD_REACTORS
330
99
102
}
330
99
100
AcDbScale
 70
     0
300
1:8
140
1.0
141
8.0
290
     0
  0
SCALE
  5
3CC
102
{ACAD_REACTORS
330
99
102
}
330
99
100
AcDbScale
 70
     0
300
1:10
140
1.0
141
10.0
290
     0
  0
SCALE
  5
3CD
102
{ACAD_REACTORS
330
99
102
}
330
99
100
AcDbScale
 70
     0
300
1:16
140
1.0
141
16.0
290
     0
  0
SCALE
  5
3CE
102
{ACAD_REACTORS
330
99
102
}
330
99
100
AcDbScale
 70
     0
300
1:20
140
1.0
141
20.0
290
     0
  0
SCALE
  5
3CF
102
{ACAD_REACTORS
330
99
102
}
330
99
100
AcDbScale
 70
     0
300
1:30
140
1.0
141
30.0
290
     0
  0
SCALE
  5
3D0
102
{ACAD_REACTORS
330
99
102
}
330
99
100
AcDbScale
 70
     0
300
1:40
140
1.0
141
40.0
290
     0
  0
SCALE
  5
3D1
102
{ACAD_REACTORS
330
99
102
}
330
99
100
AcDbScale
 70
     0
300
1:50
140
1.0
141
50.0
290
     0
  0
SCALE
  5
3D2
102
{ACAD_REACTORS
330
99
102
}
330
99
100
AcDbScale
 70
     0
300
1:100
140
1.0
141
100.0
290
     0
  0
SCALE
  5
3D3
102
{ACAD_REACTORS
330
99
102
}
330
99
100
AcDbScale
 70
     0
300
2:1
140
2.0
141
1.0
290
     0
  0
SCALE
  5
3D4
102
{ACAD_REACTORS
330
99
102
}
330
99
100
AcDbScale
 70
     0
300
4:1
140
4.0
141
1.0
290
     0
  0
SCALE
  5
3D5
102
{ACAD_REACTORS
330
99
102
}
330
99
100
AcDbScale
 70
     0
300
8:1
140
8.0
141
1.0
290
     0
  0
SCALE
  5
3D6
102
{ACAD_REACTORS
330
99
102
}
330
99
100
AcDbScale
 70
     0
300
10:1
140
10.0
141
1.0
290
     0
  0
SCALE
  5
3D7
102
{ACAD_REACTORS
330
99
102
}
330
99
100
AcDbScale
 70
     0
300
100:1
140
100.0
141
1.0
290
     0
  0
SCALE
  5
3D8
102
{ACAD_REACTORS
330
99
102
}
330
99
100
AcDbScale
 70
     0
300
1/128" = 1'-0"
140
0.0078125
141
12.0
290
     0
  0
SCALE
  5
3D9
102
{ACAD_REACTORS
330
99
102
}
330
99
100
AcDbScale
 70
     0
300
1/64" = 1'-0"
140
0.015625
141
12.0
290
     0
  0
SCALE
  5
3DA
102
{ACAD_REACTORS
330
99
102
}
330
99
100
AcDbScale
 70
     0
300
1/32" = 1'-0"
140
0.03125
141
12.0
290
     0
  0
SCALE
  5
3DB
102
{ACAD_REACTORS
330
99
102
}
330
99
100
AcDbScale
 70
     0
300
1/16" = 1'-0"
140
0.0625
141
12.0
290
     0
  0
SCALE
  5
3DC
102
{ACAD_REACTORS
330
99
102
}
330
99
100
AcDbScale
 70
     0
300
3/32" = 1'-0"
140
0.09375
141
12.0
290
     0
  0
SCALE
  5
3DD
102
{ACAD_REACTORS
330
99
102
}
330
99
100
AcDbScale
 70
     0
300
1/8" = 1'-0"
140
0.125
141
12.0
290
     0
  0
SCALE
  5
3DE
102
{ACAD_REACTORS
330
99
102
}
330
99
100
AcDbScale
 70
     0
300
3/16" = 1'-0"
140
0.1875
141
12.0
290
     0
  0
SCALE
  5
3DF
102
{ACAD_REACTORS
330
99
102
}
330
99
100
AcDbScale
 70
     0
300
1/4" = 1'-0"
140
0.25
141
12.0
290
     0
  0
SCALE
  5
3E0
102
{ACAD_REACTORS
330
99
102
}
330
99
100
AcDbScale
 70
     0
300
3/8" = 1'-0"
140
0.375
141
12.0
290
     0
  0
SCALE
  5
3E1
102
{ACAD_REACTORS
330
99
102
}
330
99
100
AcDbScale
 70
     0
300
1/2" = 1'-0"
140
0.5
141
12.0
290
     0
  0
SCALE
  5
3E2
102
{ACAD_REACTORS
330
99
102
}
330
99
100
AcDbScale
 70
     0
300
3/4" = 1'-0"
140
0.75
141
12.0
290
     0
  0
SCALE
  5
3E3
102
{ACAD_REACTORS
330
99
102
}
330
99
100
AcDbScale
 70
     0
300
1" = 1'-0"
140
1.0
141
12.0
290
     0
  0
SCALE
  5
3E4
102
{ACAD_REACTORS
330
99
102
}
330
99
100
AcDbScale
 70
     0
300
1-1/2" = 1'-0"
140
1.5
141
12.0
290
     0
  0
SCALE
  5
3E5
102
{ACAD_REACTORS
330
99
102
}
330
99
100
AcDbScale
 70
     0
300
3" = 1'-0"
140
3.0
141
12.0
290
     0
  0
SCALE
  5
3E6
102
{ACAD_REACTORS
330
99
102
}
330
99
100
AcDbScale
 70
     0
300
6" = 1'-0"
140
6.0
141
12.0
290
     0
  0
SCALE
  5
3E7
102
{ACAD_REACTORS
330
99
102
}
330
99
100
AcDbScale
 70
     0
300
1'-0" = 1'-0"
140
12.0
141
12.0
290
     0
  0
TABLESTYLE
  5
93
102
{ACAD_REACTORS
330
92
102
}
330
92
100
AcDbTableStyle
  3
Standard
 70
     0
 71
     0
 40
0.06
 41
0.06
280
     0
281
     0
  7
Standard
140
0.18
170
     2
 62
     0
 63
     7
283
     0
 90
      512
 91
        0
  1

274
    -2
284
     1
 64
     0
275
    -2
285
     1
 65
     0
276
    -2
286
     1
 66
     0
277
    -2
287
     1
 67
     0
278
    -2
288
     1
 68
     0
279
    -2
289
     1
 69
     0
  7
Standard
140
0.25
170
     5
 62
     0
 63
     7
283
     0
 90
      512
 91
        0
  1

274
    -2
284
     1
 64
     0
275
    -2
285
     1
 65
     0
276
    -2
286
     1
 66
     0
277
    -2
287
     1
 67
     0
278
    -2
288
     1
 68
     0
279
    -2
289
     1
 69
     0
  7
Standard
140
0.18
170
     5
 62
     0
 63
     7
283
     0
 90
      512
 91
        0
  1

274
    -2
284
     1
 64
     0
275
    -2
285
     1
 65
     0
276
    -2
286
     1
 66
     0
277
    -2
287
     1
 67
     0
278
    -2
288
     1
 68
     0
279
    -2
289
     1
 69
     0
  0
DICTIONARYVAR
  5
437
102
{ACAD_REACTORS
330
59
102
}
330
59
100
DictionaryVariables
280
     0
  1
1:1
  0
DICTIONARYVAR
  5
98
102
{ACAD_REACTORS
330
59
102
}
330
59
100
DictionaryVariables
280
     0
  1
Standard
  0
DICTIONARYVAR
  5
3EA
102
{ACAD_REACTORS
330
59
102
}
330
59
100
DictionaryVariables
280
     0
  1
2
  0
DICTIONARYVAR
  5
5E
102
{ACAD_REACTORS
330
59
102
}
330
59
100
DictionaryVariables
280
     0
  1
1
  0
ENDSEC
  0
EOF
